<?xml version="1.0" standalone="no"?>
<!DOCTYPE svg PUBLIC "-//W3C//DTD SVG 1.1//EN" "http://www.w3.org/Graphics/SVG/1.1/DTD/svg11.dtd" >
<svg xmlns="http://www.w3.org/2000/svg">
<metadata>Generated by IcoMoon</metadata>
<defs>
<font id="icomoon" horiz-adv-x="1024">
<font-face units-per-em="1024" ascent="960" descent="-64" />
<missing-glyph horiz-adv-x="1024" />
<glyph unicode="&#x20;" horiz-adv-x="512" d="" />
<glyph unicode="&#xe900;" glyph-name="arrow-down" horiz-adv-x="1138" d="M529.105 7.611l-491.542 884.776c-16.853 30.335 5.082 67.613 39.784 67.613h983.084c34.702 0 56.637-37.279 39.785-67.613l-491.543-884.776c-17.34-31.212-62.227-31.212-79.567 0z" />
<glyph unicode="&#xe901;" glyph-name="arrow-right" horiz-adv-x="1317" d="M146.286 528.429c-44.413-0.016-80.412-36.016-80.429-80.427v-0.002c0.016-44.413 36.016-80.412 80.427-80.429h1024.002c44.413 0.016 80.412 36.016 80.429 80.427v0.002c-0.016 44.413-36.016 80.412-80.427 80.429h-0.002zM1170.286 528.429c-22.206-0.012-42.306-9.017-56.857-23.571l-365.714-365.714c-14.539-14.556-23.531-34.657-23.531-56.857s8.992-42.301 23.532-56.858l-0.001 0.001c14.556-14.539 34.657-23.531 56.857-23.531s42.301 8.992 56.858 23.532l365.713 365.713c14.539 14.556 23.531 34.657 23.531 56.857s-8.992 42.301-23.531 56.858l0.001-0.001c-14.551 14.554-34.651 23.56-56.855 23.571h-0.002zM747.714 870.571c-14.539-14.556-23.531-34.657-23.531-56.857s8.992-42.301 23.531-56.858l365.713-365.713c14.556-14.539 34.657-23.531 56.857-23.531s42.301 8.992 56.858 23.532l-0.001-0.001c14.539 14.556 23.531 34.657 23.531 56.857s-8.992 42.301-23.531 56.858l-365.713 365.713c-14.556 14.539-34.657 23.531-56.857 23.531s-42.301-8.992-56.858-23.532l0.001 0.001z" />
<glyph unicode="&#xe902;" glyph-name="auto-payment" d="M589 219.267l-101.133-101.133c-6.175-6.177-9.993-14.709-9.993-24.133s3.819-17.956 9.994-24.133l101.133-101.133c6.177-6.175 14.709-9.995 24.133-9.995s17.957 3.819 24.133 9.995v0c6.175 6.177 9.995 14.709 9.995 24.133s-3.819 17.957-9.995 24.133l-77 77 77 77c6.175 6.177 9.995 14.709 9.995 24.133s-3.819 17.957-9.995 24.133v0c-6.177 6.175-14.709 9.995-24.133 9.995s-17.957-3.819-24.133-9.995v0zM410.867 937.267c-9.425-0.001-17.957-3.823-24.133-10v0c-6.175-6.177-9.995-14.709-9.995-24.133s3.819-17.957 9.995-24.133l77-77-77-77c-6.175-6.177-9.995-14.709-9.995-24.133s3.819-17.957 9.995-24.133v0c6.177-6.175 14.709-9.995 24.133-9.995s17.957 3.819 24.133 9.995l101.133 101.133c6.175 6.177 9.993 14.709 9.993 24.133s-3.819 17.956-9.994 24.133l-101.133 101.133c-6.176 6.177-14.708 9.999-24.133 10v0zM663.733 836.133c-18.851 0-34.133-15.282-34.133-34.133v0c0-18.851 15.282-34.133 34.133-34.133v0h151.667c31.193 0 61.076-12.409 83.133-34.467s34.467-51.938 34.467-83.133v-404.533c0-31.198-12.408-61.075-34.467-83.133s-51.941-34.467-83.133-34.467h-303.4c-18.851 0-34.133-15.282-34.133-34.133v0c0-18.851 15.282-34.133 34.133-34.133v0h303.4c49.274 0 96.558 19.625 131.4 54.467s54.467 82.126 54.467 131.4v404.533c0 49.273-19.624 96.558-54.467 131.4s-82.127 54.467-131.4 54.467zM208.6 836.133c-49.274 0-96.558-19.625-131.4-54.467s-54.467-82.126-54.467-131.4v-404.533c0-49.276 19.626-96.559 54.467-131.4s82.125-54.467 131.4-54.467h151.733c18.851 0 34.133 15.282 34.133 34.133v0c0 18.851-15.282 34.133-34.133 34.133v0h-151.733c-31.194 0-61.075 12.408-83.133 34.467s-34.467 51.936-34.467 83.133v404.533c0 31.195 12.409 61.075 34.467 83.133s51.939 34.467 83.133 34.467h303.4c18.851 0 34.133 15.282 34.133 34.133v0c0 18.851-15.282 34.133-34.133 34.133v0zM467.733 624.733c-18.851-0.002-34.131-15.283-34.133-34.133v0-316.4c0-18.851 15.282-34.133 34.133-34.133v0c18.851 0 34.133 15.282 34.133 34.133v0 282.267h85.6c24.831 0 42.133-17.457 42.133-37.133s-17.303-37.2-42.133-37.2c-18.851 0-34.133-15.282-34.133-34.133v0c0-18.851 15.282-34.133 34.133-34.133v0c59.342 0 110.4 46.356 110.4 105.467s-51.058 105.4-110.4 105.4zM410.867 482.133c-18.851 0-34.133-15.282-34.133-34.133v0c0-18.851 15.282-34.133 34.133-34.133v0h176.533c18.851 0 34.133 15.282 34.133 34.133v0c0 18.851-15.282 34.133-34.133 34.133v0zM410.867 376c-18.851 0-34.133-15.282-34.133-34.133v0c0-18.851 15.282-34.133 34.133-34.133v0h158.467c18.851 0 34.133 15.282 34.133 34.133v0c0 18.851-15.282 34.133-34.133 34.133v0z" />
<glyph unicode="&#xe903;" glyph-name="bonuses" d="M356.909 330.182c-0.009 0-0.020 0-0.031 0-10.284 0-19.594-4.169-26.333-10.909l-258.546-258.636c-6.731-6.737-10.894-16.042-10.894-26.318s4.163-19.581 10.895-26.318v0c6.737-6.731 16.042-10.894 26.318-10.894s19.581 4.163 26.318 10.895l258.636 258.545c6.759 6.742 10.94 16.064 10.94 26.364s-4.181 19.622-10.939 26.363l-0.001 0.001c-6.739 6.74-16.049 10.909-26.333 10.909-0.011 0-0.022 0-0.032 0h0.002zM460.364 123.273c-0.009 0-0.020 0-0.031 0-10.284 0-19.594-4.169-26.333-10.909l-103.364-103.455c-6.731-6.737-10.894-16.042-10.894-26.318s4.163-19.581 10.895-26.318v0c6.737-6.731 16.042-10.894 26.318-10.894s19.581 4.163 26.318 10.895v0l103.455 103.455c6.731 6.737 10.894 16.042 10.894 26.318s-4.163 19.581-10.895 26.318v0c-6.739 6.74-16.049 10.909-26.333 10.909-0.011 0-0.022 0-0.032 0h0.002zM517.818 950.636c-42.447-0.543-77.185-36.184-76.636-78.636l2.091-165.636-135.182-95.636c-13.941-9.859-24.296-23.969-29.364-40.273-12.602-40.538 10.644-84.671 51.182-97.273l158.091-49.182 49.182-158.091c5.067-16.3 15.42-30.504 29.364-40.364 34.64-24.502 83.655-16.062 108.182 18.545l95.727 135.182 165.545-2.091c17.081-0.223 33.768 5.237 47.455 15.455 34.018 25.39 41.21 74.615 15.818 108.636l-99.091 132.727 53.182 156.909c5.49 16.175 5.49 33.735 0 49.909-13.63 40.208-58.251 62.181-98.455 48.545l-156.818-53.182-132.818 99.091c-13.686 10.213-30.382 15.582-47.455 15.364zM518.818 876.182c0.708 0.009 1.342-0.214 1.909-0.636l148.455-110.727c6.141-4.637 13.902-7.426 22.315-7.426 4.28 0 8.391 0.722 12.219 2.051l-0.261-0.079 175.364 59.545c2.078 0.705 3.385 0.081 4.091-2 0-0.013 0-0.029 0-0.045s0-0.032 0-0.048v0.002c0.228-0.666 0.223-1.336 0-2l-59.545-175.364c-1.25-3.566-1.972-7.677-1.972-11.957 0-8.413 2.79-16.174 7.495-22.41l-0.068 0.094 110.727-148.455c1.315-1.763 1.13-3.136-0.636-4.454-0.566-0.424-1.21-0.646-1.909-0.636l-185.182 2.364c-0.151 0.002-0.33 0.003-0.509 0.003-12.505 0-23.57-6.163-30.323-15.618l-0.077-0.113-106.909-151.182c-1.266-1.79-2.662-2.086-4.454-0.818-0.578 0.41-0.97 1.047-1.182 1.727l-55 176.818c-3.722 11.751-12.794 20.823-24.282 24.473l-0.264 0.072-176.818 54.909c-2.105 0.654-2.745 1.895-2.091 4 0.21 0.676 0.604 1.319 1.182 1.727l151.182 106.909c9.568 6.83 15.731 17.896 15.731 30.4 0 0.179-0.001 0.358-0.004 0.536v-0.027l-2.364 185.182c-0.028 2.198 0.983 3.154 3.182 3.182zM150.091 433.545c-0.036 0-0.079 0-0.122 0-10.239 0-19.512-4.132-26.244-10.82l-103.453-103.453c-6.759-6.742-10.94-16.064-10.94-26.364s4.181-19.622 10.939-26.363l0.001-0.001c6.737-6.731 16.042-10.894 26.318-10.894s19.581 4.163 26.318 10.895v0l103.455 103.455c6.759 6.742 10.94 16.064 10.94 26.364s-4.181 19.622-10.939 26.363l-0.001 0.001c-6.73 6.686-16.003 10.818-26.242 10.818-0.011 0-0.022 0-0.033 0h0.002z" />
<glyph unicode="&#xe904;" glyph-name="channels" d="M307.2 642.6c-0.012 0-0.026 0-0.040 0-22.622 0-40.96-18.338-40.96-40.96 0-0.014 0-0.028 0-0.042v0.002c0-0.012 0-0.026 0-0.040 0-22.622 18.338-40.96 40.96-40.96 0.014 0 0.028 0 0.042 0h204.798c0.012 0 0.026 0 0.040 0 22.622 0 40.96 18.338 40.96 40.96 0 0.014 0 0.028 0 0.042v-0.002c0 0.012 0 0.026 0 0.040 0 22.622-18.338 40.96-40.96 40.96-0.014 0-0.028 0-0.042 0h0.002zM307.2 437.8c-0.012 0-0.026 0-0.040 0-22.622 0-40.96-18.338-40.96-40.96 0-0.014 0-0.028 0-0.042v0.002c0-0.012 0-0.026 0-0.040 0-22.622 18.338-40.96 40.96-40.96 0.014 0 0.028 0 0.042 0h409.598c0.012 0 0.026 0 0.040 0 22.622 0 40.96 18.338 40.96 40.96 0 0.014 0 0.028 0 0.042v-0.002c0 0.012 0 0.026 0 0.040 0 22.622-18.338 40.96-40.96 40.96-0.014 0-0.028 0-0.042 0h0.002zM204.8 949.8c-51.585 0-101.124-20.524-137.6-57s-57-86.015-57-137.6v-742.4c0-11.877 3.273-23.468 9.3-33.7 6.015-10.211 14.612-18.737 25-24.5 10.391-5.764 22.203-8.62 34.1-8.3 11.859 0.323 23.46 3.826 33.5 10.1l147.6 92.2h559.5c51.584 0 101.124 20.524 137.6 57s57 86.016 57 137.6v512c0 51.586-20.525 101.125-57 137.6-36.476 36.477-86.017 57-137.6 57zM204.8 867.8h614.4c29.887 0 58.466-11.866 79.6-33 21.135-21.136 33-49.711 33-79.6v-512c0-29.885-11.866-58.466-33-79.6s-49.714-33-79.6-33h-571.3c-8.050-0.026-15.547-2.37-21.865-6.399l0.165 0.099-134-83.7v714.6c0 29.89 11.865 58.465 33 79.6s49.71 33 79.6 33z" />
<glyph unicode="&#xe905;" glyph-name="check" horiz-adv-x="1229" d="M501.208-64c-41.305 0-75.289 15.583-101.948 46.751l-290.078 341.896c-12.767 13.894-21.591 27.224-26.473 39.991-4.506 13.142-6.759 27.036-6.759 41.681 0 32.293 10.89 59.142 32.669 80.546s49.379 32.105 82.799 32.105c35.673 0 65.338-13.706 88.995-41.118l218.543-261.915 436.524 685.483c13.894 21.404 28.538 36.424 43.934 45.061 15.772 9.012 34.922 13.518 57.448 13.518 32.676 0 60.088-10.702 82.237-32.106 22.528-21.028 33.802-47.689 33.802-79.982 0-11.641-2.068-23.845-6.205-36.612-4.127-12.391-10.506-24.97-19.149-37.737l-519.883-783.49c-24.032-36.048-59.518-54.072-106.456-54.072z" />
<glyph unicode="&#xe906;" glyph-name="chevron-down" horiz-adv-x="1755" d="M146.286 930.857c-0.029 0-0.063 0-0.097 0-32.321 0-61.582-13.102-82.76-34.285v0c-21.241-21.188-34.382-50.488-34.382-82.857s13.141-61.669 34.38-82.855l698.573-698.288c11.586-11.586 24.606-33.064 70.571-48 29.358-9.538 60.928-9.538 90.286 0 45.965 14.936 58.986 36.414 70.571 48l698.571 698.286c21.241 21.188 34.382 50.488 34.382 82.857s-13.141 61.669-34.38 82.855l-0.002 0.002c-21.188 21.241-50.488 34.382-82.857 34.382s-61.669-13.141-82.855-34.38l-648.573-648.859-648.571 648.857c-21.179 21.183-50.44 34.286-82.761 34.286-0.034 0-0.068 0-0.102 0h0.005z" />
<glyph unicode="&#xe907;" glyph-name="chevron-up" horiz-adv-x="1755" d="M832.571 911.429c-45.965-14.936-58.986-36.414-70.571-48l-698.571-698.286c-21.241-21.188-34.382-50.488-34.382-82.857s13.141-61.669 34.38-82.855l0.002-0.002c21.188-21.241 50.488-34.382 82.857-34.382s61.669 13.141 82.855 34.38l648.573 648.859 648.571-648.857c21.188-21.241 50.488-34.382 82.857-34.382s61.669 13.141 82.855 34.38l0.002 0.002c21.241 21.188 34.382 50.488 34.382 82.857s-13.141 61.669-34.38 82.855l-698.573 698.288c-11.586 11.586-24.606 33.064-70.571 48-29.358 9.538-60.928 9.538-90.286 0z" />
<glyph unicode="&#xe908;" glyph-name="circle-right" horiz-adv-x="1088" d="M535.5-60.845c-70.333 0-136.333 13.331-198 40-61.667 26.336-115.834 62.835-162.5 109.504-46.667 46.662-83.334 100.832-110.001 162.496-26.333 61.67-39.5 127.668-39.5 198.001s13.167 136.333 39.5 198c26.667 61.667 63.334 115.833 110.001 162.5 46.666 47 100.833 83.667 162.5 110s127.667 39.5 198 39.5c70.333 0 136.333-13.167 197.997-39.5 61.67-26.333 115.834-63 162.502-110 46.669-46.667 83.168-100.833 109.498-162.5 26.669-61.667 40-127.667 40-198s-13.331-136.331-40-198.001c-26.33-61.664-62.829-115.834-109.498-162.496-46.669-46.669-100.832-83.168-162.502-109.504-61.664-26.669-127.664-40-197.997-40zM535.5 24.154c58.666 0 113.665 11.002 164.999 33.005 51.334 21.997 96.499 52.499 135.501 91.501 39.002 38.995 69.498 84.166 91.501 135.494 21.997 51.336 32.998 106.336 32.998 165.003s-11.002 113.667-32.998 165c-22.003 51.667-52.499 96.833-91.501 135.5-39.002 39-84.166 69.5-135.501 91.5s-106.333 33-164.999 33c-58.667 0-113.667-11-165-33s-96.5-52.5-135.5-91.5c-39-38.667-69.5-83.834-91.5-135.5-22-51.333-33-106.333-33-165s11-113.667 33-165.003c22-51.328 52.5-96.499 91.5-135.494 39-39.002 84.166-69.504 135.5-91.501 51.334-22.003 106.333-33.005 165-33.005zM787.501 449.656c0-5-0.998-9.834-3.002-14.5-1.997-4.667-5.498-9.5-10.496-14.5l-159.003-165.002c-3.667-3.667-7.667-6.496-12-8.499-4-1.997-8.667-3.002-14.001-3.002-10.333 0-18.833 3.334-25.5 10.003s-10 15.334-10 25.997c0 11.334 4 20.506 12 27.501l81.501 76.002 31.002 29.5-75.003-3h-281.5c-10.333 0-19.334 3.834-27 11.5-7.667 8-11.5 17.333-11.5 28s3.833 20 11.5 28c7.667 8 16.667 12 27 12h281.5l74.497-3.5-30.496 29.5-81.501 76c-8 7-12 16-12 27 0 10.333 3.333 19 10 26s15.167 10.5 25.5 10.5c5.334 0 10.001-1 14.001-3 4.333-2 8.333-4.833 12-8.5l159.003-165c4.998-5 8.499-9.833 10.496-14.5 2.003-4.667 3.002-9.5 3.002-14.5z" />
<glyph unicode="&#xe909;" glyph-name="close" d="M73.143 959.429c-20.197-0.003-38.48-8.192-51.714-21.429v0c-13.276-13.243-21.489-31.555-21.489-51.786s8.213-38.543 21.488-51.784l877.716-877.002c13.236-13.233 31.519-21.418 51.714-21.418s38.479 8.185 51.714 21.418v0c13.233 13.236 21.418 31.519 21.418 51.714s-8.185 38.479-21.418 51.714l-877.714 877.143c-13.234 13.237-31.518 21.425-51.714 21.429h-0.001zM899.143 938.571l-877.714-877c-13.276-13.243-21.489-31.555-21.489-51.786s8.213-38.543 21.488-51.784l0.002-0.002c13.236-13.233 31.519-21.418 51.714-21.418s38.479 8.185 51.714 21.418l877.714 877.143c13.233 13.236 21.418 31.519 21.418 51.714s-8.185 38.479-21.418 51.714v0c-13.236 13.233-31.519 21.418-51.714 21.418s-38.479-8.185-51.714-21.418v0z" />
<glyph unicode="&#xe90a;" glyph-name="copy" horiz-adv-x="910" d="M143.444 699.333c-73.574 0-132.111-62.665-132.111-136.222v-479.667c0-73.505 58.553-136.111 132.111-136.111h382.333c73.575 0 132.111 62.662 132.111 136.222v479.556c0 73.56-58.539 136.222-132.111 136.222zM143.444 608.333h382.333c21.994 0 41.111-18.694 41.111-45.222v-479.556c0-26.53-19.119-45.111-41.111-45.111h-382.333c-22.186 0-41 18.415-41 45v479.667c0 26.531 19.003 45.222 41 45.222zM381.556 948.667c-73.574 0-132.111-62.665-132.111-136.222v-158.667c0.038-25.083 20.361-45.407 45.441-45.444h0.004c0.013 0 0.029 0 0.044 0 25.112 0 45.473 20.338 45.511 45.441v158.671c0 26.531 19.114 45.111 41.111 45.111h385.222c21.99 0 41-18.583 41-45.111v-479.667c0-26.53-19.008-45.111-41-45.111h-154.444c-0.013 0-0.029 0-0.044 0-25.135 0-45.511-20.376-45.511-45.511 0-0.016 0-0.031 0-0.047v0.002c0-0.013 0-0.029 0-0.044 0-25.135 20.376-45.511 45.511-45.511 0.016 0 0.031 0 0.047 0h154.442c73.57 0 132 62.662 132 136.222v479.667c0 73.56-58.429 136.222-132 136.222z" />
<glyph unicode="&#xe90b;" glyph-name="credit-card" horiz-adv-x="1252" d="M56.889 683.111c-0.013 0-0.029 0-0.044 0-25.112 0-45.473-20.338-45.511-45.441v-0.004c0-0.013 0-0.029 0-0.044 0-25.135 20.376-45.511 45.511-45.511 0.016 0 0.031 0 0.047 0h1137.775c0.013 0 0.029 0 0.044 0 25.135 0 45.511 20.376 45.511 45.511 0 0.016 0 0.031 0 0.047v-0.002c-0.038 25.106-20.399 45.444-45.511 45.444-0.016 0-0.031 0-0.047 0h0.002zM309.778 430.333c-0.013 0-0.029 0-0.044 0-25.135 0-45.511-20.376-45.511-45.511 0-0.016 0-0.031 0-0.047v0.002c0.038-25.106 20.399-45.444 45.511-45.444 0.016 0 0.031 0 0.047 0h162.442c25.083 0.038 45.407 20.361 45.444 45.441v0.004c0 0.013 0 0.029 0 0.044 0 25.112-20.338 45.473-45.441 45.511h-0.004zM246.556 936c-129.33 0-235.222-105.781-235.222-235.111v-505.778c0-129.329 105.893-235.111 235.222-235.111h758.444c129.329 0 235.222 105.782 235.222 235.111v505.778c0 129.329-105.893 235.111-235.222 235.111zM246.556 845h758.444c80.147 0 144.111-63.963 144.111-144.111v-505.778c0-80.147-63.964-144.111-144.111-144.111h-758.444c-80.148 0-144.111 63.964-144.111 144.111v505.778c0 80.147 63.964 144.111 144.111 144.111z" />
<glyph unicode="&#xe90c;" glyph-name="custom-period" d="M281.6 944.6c-19.763-0.023-35.777-16.037-35.8-35.798v-41.002h-41c-104.2 0-189.4-85.2-189.4-189.4v-537.6c0-104.202 85.201-189.4 189.4-189.4h614.4c104.201 0 189.4 85.199 189.4 189.4v537.6c0 104.199-85.198 189.4-189.4 189.4h-41v41c-0.023 19.763-16.037 35.777-35.798 35.8h-0.002c-19.763-0.023-35.777-16.037-35.8-35.798v-41.002h-389.2v41c-0.023 19.763-16.037 35.777-35.798 35.8h-0.002zM204.8 796.2h41v-41c0.023-19.763 16.037-35.777 35.798-35.8h0.002c19.763 0.023 35.777 16.037 35.8 35.798v41.002h389.2v-41c0.023-19.763 16.037-35.777 35.798-35.8h0.002c19.763 0.023 35.777 16.037 35.8 35.798v41.002h41c65.464 0 117.8-52.338 117.8-117.8v-537.6c0-65.465-52.335-117.8-117.8-117.8h-614.4c-65.462 0-117.8 52.336-117.8 117.8v537.6c0 65.461 52.339 117.8 117.8 117.8zM407.3 586.2c-8.363-0.565-15.85-3.919-21.632-9.128l0.032 0.028-61.6-55.3-18.5 16.6c-6.327 5.724-14.757 9.226-24.005 9.226-10.589 0-20.105-4.592-26.666-11.893l-0.029-0.033c-5.694-6.319-9.177-14.727-9.177-23.949 0-10.565 4.572-20.063 11.845-26.622l0.032-0.028 42.5-38.2c6.319-5.693 14.728-9.176 23.95-9.176s17.631 3.483 23.982 9.205l-0.032-0.029 85.5 76.8c7.338 6.59 11.932 16.109 11.932 26.7 0 9.198-3.465 17.587-9.161 23.933l0.029-0.033c-6.592 7.361-16.126 11.972-26.736 11.972-0.797 0-1.587-0.026-2.371-0.077l0.107 0.006zM563.2 535c-19.763-0.023-35.777-16.037-35.8-35.798v-0.002c0.023-19.763 16.037-35.777 35.798-35.8h179.202c19.763 0.023 35.777 16.037 35.8 35.798v0.002c-0.023 19.763-16.037 35.777-35.798 35.8h-179.202zM407.3 330.2c-8.363-0.565-15.85-3.919-21.632-9.129l0.032 0.028-61.6-55.3-18.5 16.6c-6.327 5.724-14.757 9.226-24.005 9.226-10.589 0-20.105-4.592-26.666-11.893l-0.029-0.033c-5.694-6.319-9.177-14.727-9.177-23.949 0-10.565 4.572-20.063 11.845-26.622l0.032-0.028 42.5-38.2c6.319-5.693 14.728-9.176 23.95-9.176s17.631 3.483 23.982 9.205l-0.032-0.029 85.5 76.8c7.338 6.59 11.932 16.109 11.932 26.7 0 9.198-3.465 17.587-9.161 23.933l0.029-0.033c-6.592 7.361-16.126 11.972-26.736 11.972-0.797 0-1.587-0.026-2.371-0.077l0.107 0.006zM563.2 279c-19.763-0.023-35.777-16.037-35.8-35.798v-0.002c0.023-19.763 16.037-35.777 35.798-35.8h179.202c19.763 0.023 35.777 16.037 35.8 35.798v0.002c-0.023 19.763-16.037 35.777-35.798 35.8h-179.202z" />
<glyph unicode="&#xe90d;" glyph-name="delete" horiz-adv-x="922" d="M115.2 777c-22.605-0.025-40.92-18.356-40.92-40.964 0-1.104 0.044-2.197 0.129-3.279l-0.009 0.143 49.4-642.5c3.017-39.215 20.746-75.877 49.6-102.6 28.857-26.718 66.768-41.6 106.1-41.6h362.6c39.333 0 77.243 14.88 106.1 41.6 28.853 26.723 46.582 63.387 49.6 102.6l49.4 642.5c0.077 0.939 0.12 2.032 0.12 3.136 0 22.608-18.315 40.939-40.918 40.964h-0.002zM159.4 695h602.8l-46.1-598.3c-1.436-18.663-9.765-36.079-23.5-48.8-13.732-12.715-31.783-19.7-50.5-19.7h-362.6c-18.714 0-36.766 6.984-50.5 19.7-13.736 12.721-22.064 30.138-23.5 48.8zM51.2 777c-0.012 0-0.026 0-0.040 0-22.622 0-40.96-18.338-40.96-40.96 0-0.014 0-0.028 0-0.042v0.002c0-0.012 0-0.026 0-0.040 0-22.622 18.338-40.96 40.96-40.96 0.014 0 0.028 0 0.042 0h819.198c0.012 0 0.026 0 0.040 0 22.622 0 40.96 18.338 40.96 40.96 0 0.014 0 0.028 0 0.042v-0.002c0 0.012 0 0.026 0 0.040 0 22.622-18.338 40.96-40.96 40.96-0.014 0-0.028 0-0.042 0h0.002zM316.8 949.8c-26.124 0-51.228-10.429-69.7-28.9s-28.9-43.576-28.9-69.7v-115.2c0-0.011 0-0.023 0-0.036 0-22.624 18.34-40.964 40.964-40.964 0.013 0 0.025 0 0.038 0h403.198c0.011 0 0.023 0 0.036 0 22.624 0 40.964 18.34 40.964 40.964 0 0.013 0 0.025 0 0.038v-0.002 115.2c0 26.122-10.424 51.226-28.9 69.7-18.47 18.468-43.575 28.9-69.7 28.9zM316.8 867.8h288c4.431 0 8.664-1.664 11.8-4.8 3.131-3.13 4.8-7.369 4.8-11.8v-74.2h-321.2v74.2c0 4.429 1.668 8.668 4.8 11.8s7.371 4.8 11.8 4.8zM561.6 546.6c-0.012 0-0.026 0-0.040 0-22.622 0-40.96-18.338-40.96-40.96 0-0.014 0-0.028 0-0.042v0.002-288c0-0.012 0-0.026 0-0.040 0-22.622 18.338-40.96 40.96-40.96 0.014 0 0.028 0 0.042 0h-0.002c0.012 0 0.026 0 0.040 0 22.622 0 40.96 18.338 40.96 40.96 0 0.014 0 0.028 0 0.042v-0.002 288c0 0.012 0 0.026 0 0.040 0 22.622-18.338 40.96-40.96 40.96-0.014 0-0.028 0-0.042 0h0.002zM360 546.6c-0.012 0-0.026 0-0.040 0-22.622 0-40.96-18.338-40.96-40.96 0-0.014 0-0.028 0-0.042v0.002-288c0-0.012 0-0.026 0-0.040 0-22.622 18.338-40.96 40.96-40.96 0.014 0 0.028 0 0.042 0h-0.002c0.012 0 0.026 0 0.040 0 22.622 0 40.96 18.338 40.96 40.96 0 0.014 0 0.028 0 0.042v-0.002 288c0 0.012 0 0.026 0 0.040 0 22.622-18.338 40.96-40.96 40.96-0.014 0-0.028 0-0.042 0h0.002z" />
<glyph unicode="&#xe90e;" glyph-name="detailing" horiz-adv-x="922" d="M204.8 949.8c-51.585 0-101.124-20.524-137.6-57s-57-86.015-57-137.6v-614.4c0-51.583 20.523-101.124 57-137.6 36.475-36.475 86.014-57 137.6-57h512c51.584 0 101.124 20.524 137.6 57s57 86.016 57 137.6v499.6c0 51.586-20.525 101.125-57 137.6l-114.8 114.8c-36.476 36.477-86.017 57-137.6 57zM204.8 867.8h397.2c29.886 0 58.466-11.866 79.6-33l114.8-114.8c21.135-21.136 33-49.711 33-79.6v-499.6c0-29.885-11.866-58.466-33-79.6s-49.715-33-79.6-33h-512c-29.889 0-58.464 11.865-79.6 33-21.134 21.134-33 49.713-33 79.6v614.4c0 29.89 11.865 58.465 33 79.6s49.71 33 79.6 33zM588.8 949.8c-0.012 0-0.026 0-0.040 0-22.622 0-40.96-18.338-40.96-40.96 0-0.014 0-0.028 0-0.042v0.002-179.2c0-38.005 15.123-74.525 42-101.4 26.875-26.873 63.396-42 101.4-42h179.2c0.012 0 0.026 0 0.040 0 22.622 0 40.96 18.338 40.96 40.96 0 0.014 0 0.028 0 0.042v-0.002c0 0.012 0 0.026 0 0.040 0 22.622-18.338 40.96-40.96 40.96-0.014 0-0.028 0-0.042 0h-179.198c-16.308 0-31.865 6.465-43.4 18-11.534 11.533-18 27.089-18 43.4v179.2c0 0.012 0 0.026 0 0.040 0 22.622-18.338 40.96-40.96 40.96-0.014 0-0.028 0-0.042 0h0.002zM345.6 348.2c-0.010 0-0.022 0-0.034 0-11.312 0-21.554-4.586-28.966-12v0c-7.434-7.416-12.034-17.671-12.034-29s4.6-21.584 12.033-28.999l115.201-115.201c7.416-7.433 17.671-12.032 29-12.032s21.584 4.599 28.999 12.031l115.201 115.201c7.434 7.416 12.034 17.671 12.034 29s-4.6 21.584-12.033 28.999l-0.001 0.001c-7.416 7.434-17.671 12.034-29 12.034s-21.584-4.6-28.999-12.033l-86.201-86.201-86.2 86.2c-7.413 7.414-17.654 12-28.966 12-0.012 0-0.024 0-0.036 0h0.002zM461 489c-22.596-0.034-40.9-18.359-40.9-40.96 0-0.014 0-0.028 0-0.042v0.002-256c0-0.012 0-0.026 0-0.040 0-22.6 18.304-40.926 40.897-40.96h0.003c0.012 0 0.026 0 0.040 0 22.622 0 40.96 18.338 40.96 40.96 0 0.014 0 0.028 0 0.042v-0.002 256c0 0.012 0 0.026 0 0.040 0 22.622-18.338 40.96-40.96 40.96-0.014 0-0.028 0-0.042 0h0.002z" />
<glyph unicode="&#xe90f;" glyph-name="edit" d="M829.2 950.4c-23.797-0.103-47.533-9.213-65.3-27.3l-332.3-338c-7.28-7.377-11.781-17.511-11.8-28.696v-159.604c0-0.011 0-0.023 0-0.036 0-22.624 18.34-40.964 40.964-40.964 0.013 0 0.025 0 0.038 0h159.598c11.189 0.019 21.323 4.52 28.704 11.804l337.896 332.396c0.015 0 0.033 0 0.051 0s0.036 0 0.054 0h-0.003c36.088 35.542 36.344 95.056 0.502 130.9l-92.8 92.7c-17.938 17.934-41.808 26.903-65.604 26.8zM822.4 865.7c4.299 4.377 10.125 4.375 14.5 0l92.8-92.8c4.4-4.399 4.362-10.106-0.102-14.5l-326-320.6h-101.798v101.9l320.5 325.9c0.043 0.042 0.076 0.074 0.11 0.107l-0.007-0.007zM153.6 437.8c-78.693 0-143.4-64.707-143.4-143.4s64.707-143.4 143.4-143.4h716.8c34.459 0 61.4-26.941 61.4-61.4s-26.941-61.4-61.4-61.4h-204.8c-0.012 0-0.026 0-0.040 0-22.622 0-40.96-18.338-40.96-40.96 0-0.014 0-0.028 0-0.042v0.002c0-0.012 0-0.026 0-0.040 0-22.622 18.338-40.96 40.96-40.96 0.014 0 0.028 0 0.042 0h204.798c78.693 0 143.4 64.707 143.4 143.4s-64.707 143.4-143.4 143.4h-716.8c-34.459 0-61.4 26.941-61.4 61.4s26.941 61.4 61.4 61.4h102.4c0.012 0 0.026 0 0.040 0 22.622 0 40.96 18.338 40.96 40.96 0 0.014 0 0.028 0 0.042v-0.002c0 0.012 0 0.026 0 0.040 0 22.622-18.338 40.96-40.96 40.96-0.014 0-0.028 0-0.042 0h0.002z" />
<glyph unicode="&#xe910;" glyph-name="email" d="M466.444 746.333c-45.542-0.013-89.206-18.165-121.444-50.333v0.111l-16.778-16.666c-8.327-8.251-13.483-19.69-13.483-32.333 0-12.533 5.066-23.882 13.262-32.113l-0.002 0.002c8.245-8.294 19.662-13.427 32.278-13.427 12.505 0 23.832 5.044 32.058 13.207l-0.003-0.003 16.889 16.778c0 0.016 0 0.036 0 0.055s0 0.039 0 0.058v-0.003c15.18 15.147 35.782 23.633 57.222 23.667h83.556c45.22 0 80.889-35.671 80.889-80.889v-68.333h-175.778c-97.865 0.043-178.18-80.247-178.222-178.111v-0.114c-0.033-97.867 80.242-178.192 178.111-178.222h95c94.41 0 171.889 77.48 171.889 171.889v252.892c0 94.408-77.479 171.889-171.889 171.889zM455.111 415.111h175.778v-93.556c0-45.219-35.668-80.889-80.889-80.889h-95c-48.667 0.015-87.128 38.544-87.111 87.222v0.114c0.021 48.668 38.55 87.13 87.222 87.108zM360.222 948.667c-192.153 0-348.889-156.737-348.889-348.889v-303.556c0-192.151 156.736-348.889 348.889-348.889h404.556c0.013 0 0.029 0 0.045 0 25.135 0 45.511 20.376 45.511 45.511 0 0.016 0 0.031 0 0.047v-0.002c0 0.013 0 0.029 0 0.044 0 25.135-20.376 45.511-45.511 45.511-0.016 0-0.031 0-0.047 0h-404.553c-142.96 0-257.778 114.819-257.778 257.778v303.556c0 142.96 114.817 257.778 257.778 257.778h303.556c142.958 0 257.778-114.817 257.778-257.778v-252.889c0-59.167-46.944-106.222-106.111-106.222-52.193 0-93.556 41.385-93.556 93.556v139c0 0.013 0 0.029 0 0.044 0 25.135-20.376 45.511-45.511 45.511-0.016 0-0.031 0-0.047 0h0.002c-25.106-0.038-45.444-20.399-45.444-45.511 0-0.016 0-0.031 0-0.047v0.002-139c0-101.406 83.172-184.556 184.556-184.556 108.359 0 197.222 88.863 197.222 197.222v252.889c-0.043 6.267-1.346 12.219-3.669 17.63l0.113-0.296c-9.584 183.696-159.327 331.556-345.333 331.556z" />
<glyph unicode="&#xe911;" glyph-name="equipments" d="M216.692 585.846c-30.736 0-60.622-10.317-84.846-29.231-24.227-18.915-41.469-45.336-48.923-75.154l-49.231-196.923c-5.082-20.323-5.423-41.586-1.077-62.077 4.346-20.493 13.261-39.72 26.154-56.231 12.892-16.514 29.407-29.892 48.231-39.077 18.825-9.185 39.514-13.923 60.462-13.923h689.077c20.947 0 41.637 4.74 60.462 13.923 0 0.012 0 0.026 0 0.039s0 0.028 0 0.042v-0.002c18.821 9.185 35.339 22.491 48.231 39 12.888 16.51 21.886 35.735 26.231 56.231h-0.079c4.345 20.488 4.001 41.756-1.077 62.077l-49.231 196.923c-7.452 29.819-24.698 56.238-48.921 75.152-24.224 18.911-54.108 29.231-84.846 29.231zM216.692 507.077h590.615c13.184 0 25.99-4.424 36.385-12.538 10.388-8.111 17.804-19.445 21-32.231l49.231-196.923c2.177-8.713 2.324-17.756 0.462-26.538s-5.703-17.072-11.231-24.154c-5.524-7.074-12.622-12.754-20.692-16.692-8.075-3.939-16.946-6-25.923-6h-689.077c-8.978 0-17.853 2.062-25.923 6-8.071 3.938-15.168 9.615-20.692 16.692-5.523 7.073-9.368 15.368-11.231 24.154-1.862 8.78-1.638 17.835 0.538 26.538l49.231 196.923c3.197 12.788 10.535 24.12 20.923 32.231 10.39 8.112 23.205 12.538 36.385 12.538zM758.154 930.462c-21.752 0-39.385-17.633-39.385-39.385v0-344.615c0-21.752 17.633-39.385 39.385-39.385v0c21.752 0 39.385 17.633 39.385 39.385v0 344.615c0 21.752-17.633 39.385-39.385 39.385v0zM512 930.462c-21.752 0-39.385-17.633-39.385-39.385v0-344.615c0-21.752 17.633-39.385 39.385-39.385v0c21.752 0 39.385 17.633 39.385 39.385v0 344.615c0 21.752-17.633 39.385-39.385 39.385v0zM265.846 930.462c-21.752 0-39.385-17.633-39.385-39.385v0-344.615c0-21.752 17.633-39.385 39.385-39.385v0c21.752 0 39.385 17.633 39.385 39.385v0 344.615c0 21.752-17.633 39.385-39.385 39.385v0zM68.923 290.462c-21.752 0-39.385-17.633-39.385-39.385v0-147.692c0.002-36.546 14.542-71.618 40.385-97.462 25.84-25.836 60.912-40.385 97.462-40.385h689.231c18.107-0.006 36.040 3.534 52.769 10.462 16.717 6.926 31.885 17.116 44.692 29.923s22.997 27.975 29.923 44.692c6.928 16.729 10.467 34.663 10.462 52.769v147.692c0 21.752-17.633 39.385-39.385 39.385v0c-21.752 0-39.385-17.633-39.385-39.385v0-147.692c0.002-7.761-1.496-15.454-4.462-22.615-2.975-7.181-7.363-13.671-12.846-19.154s-11.973-9.871-19.154-12.846c-7.161-2.966-14.854-4.464-22.615-4.462h-689.231c-15.682 0-30.676 6.216-41.769 17.308-11.091 11.092-17.307 26.083-17.308 41.769v147.692c0 21.752-17.633 39.385-39.385 39.385v0z" />
<glyph unicode="&#xe912;" glyph-name="expenses" d="M351.538 902.462c-62.168-21.885-119.191-56.272-167.538-101.077s-87.056-99.047-113.615-159.385c-26.56-60.338-40.449-125.537-40.846-191.462-0.396-65.928 12.707-131.192 38.538-191.846 25.832-60.65 63.886-115.388 111.692-160.769 47.805-45.385 104.408-80.444 166.308-103.077 61.898-22.628 127.746-32.313 193.538-28.462 65.794 3.851 130.083 21.145 188.923 50.846 12.963 6.626 21.683 19.886 21.683 35.183 0 6.47-1.56 12.576-4.325 17.962l0.103-0.222c-6.637 12.929-19.879 21.622-35.152 21.622-6.483 0-12.599-1.566-17.992-4.341l0.221 0.103c-49.223-24.847-103.039-39.317-158.077-42.538-55.032-3.222-110.14 4.916-161.923 23.846-51.782 18.934-99.084 48.262-139.077 86.231-39.992 37.964-71.848 83.716-93.462 134.462-21.613 50.749-32.562 105.375-32.231 160.538 0.332 55.159 12.009 109.671 34.231 160.154s54.553 95.902 95 133.385c40.447 37.483 88.149 66.231 140.154 84.538 15.457 5.554 26.312 20.085 26.312 37.152 0 4.688-0.819 9.184-2.321 13.354l0.086-0.275c-5.554 15.457-20.085 26.312-37.152 26.312-4.688 0-9.184-0.819-13.354-2.321l0.275 0.086zM512.231 930.462c-21.751-0.002-39.382-17.634-39.385-39.384v0-443.077c0.002-10.875 4.411-20.72 11.538-27.846l313.154-313.308c7.127-7.124 16.972-11.531 27.846-11.531s20.719 4.406 27.846 11.531v0c67.441 67.471 113.393 153.423 132 247 18.602 93.581 9.036 190.618-27.462 278.769s-98.311 163.525-177.615 216.538c-79.304 53.013-172.542 81.307-267.923 81.308zM551.615 845.846c65.643-6.554 129.574-25.257 184.769-62.154 66.356-44.358 118.072-107.46 148.615-181.231 30.543-73.769 38.491-154.914 22.923-233.231-12.954-65.15-44.895-123.612-86.692-174.692l-269.615 269.769z" />
<glyph unicode="&#xe913;" glyph-name="fps" d="M499.25 904.667c-10.772-5.864-17.968-17.088-18-29.996v-358.671l-292.5 182.833c-5.14 3.264-11.4 5.202-18.113 5.202-18.853 0-34.137-15.284-34.137-34.137 0-0.023 0-0.046 0-0.069v0.004-460.75c0-0.015 0-0.033 0-0.051 0-18.853 15.284-34.137 34.137-34.137 6.922 0 13.362 2.060 18.742 5.6l-0.129-0.080 292 189.833v-348.917c0.004-18.85 15.286-34.13 34.137-34.13 6.992 0 13.492 2.102 18.905 5.708l-0.125-0.078 337.917 221.833c9.333 6.193 15.402 16.656 15.402 28.537 0 12.159-6.357 22.833-15.929 28.881l-0.141 0.083-275.833 172.417 276.333 179.583c9.421 6.179 15.557 16.692 15.557 28.638 0 11.876-6.064 22.335-15.265 28.45l-0.126 0.079-337.917 221.833c-5.274 3.503-11.752 5.589-18.717 5.589-5.935 0-11.516-1.514-16.377-4.178l0.178 0.089zM549.583 811.417l241.333-158.5-241.333-156.833zM204.833 608.25l263.75-164.833-263.75-171.5zM549.583 392.833l240.5-150.333-240.5-157.917z" />
<glyph unicode="&#xe914;" glyph-name="help" d="M512 930.462c-265.989 0-482.462-216.472-482.462-482.462s216.472-482.462 482.462-482.462c265.989 0 482.462 216.472 482.462 482.462s-216.472 482.462-482.462 482.462zM512 851.692c223.419 0 403.692-180.273 403.692-403.692s-180.273-403.692-403.692-403.692c-223.419 0-403.692 180.273-403.692 403.692s180.273 403.692 403.692 403.692zM512 659.692c-116.447 0-211.692-95.245-211.692-211.692s95.245-211.692 211.692-211.692c116.447 0 211.692 95.245 211.692 211.692s-95.245 211.692-211.692 211.692zM512 580.923c73.875 0 132.923-59.048 132.923-132.923s-59.048-132.923-132.923-132.923c-73.875 0-132.923 59.048-132.923 132.923s59.048 132.923 132.923 132.923zM825.231 800.615c-10.875-0.002-20.72-4.411-27.846-11.538l-191.385-191.385c-7.125-7.127-11.533-16.972-11.533-27.846s4.407-20.719 11.533-27.846v0c7.127-7.125 16.972-11.533 27.846-11.533s20.719 4.407 27.846 11.533l191.385 191.385c7.125 7.127 11.533 16.972 11.533 27.846s-4.407 20.719-11.533 27.846v0c-7.126 7.128-16.971 11.537-27.846 11.538v0zM390.154 365.538c-10.875-0.002-20.72-4.411-27.846-11.538l-191.385-191.385c-7.125-7.127-11.533-16.972-11.533-27.846s4.407-20.719 11.533-27.846v0c7.127-7.125 16.972-11.533 27.846-11.533s20.719 4.407 27.846 11.533l191.385 191.385c7.125 7.127 11.533 16.972 11.533 27.846s-4.407 20.719-11.533 27.846v0c-7.126 7.128-16.971 11.537-27.846 11.538v0zM198.769 800.615c-10.875-0.002-20.72-4.411-27.846-11.538v0c-7.125-7.127-11.533-16.972-11.533-27.846s4.407-20.719 11.533-27.846l191.385-191.385c7.127-7.125 16.972-11.533 27.846-11.533s20.719 4.407 27.846 11.533v0c7.125 7.127 11.533 16.972 11.533 27.846s-4.407 20.719-11.533 27.846l-191.385 191.385c-7.126 7.128-16.971 11.537-27.846 11.538v0zM606 354c-7.125-7.127-11.533-16.972-11.533-27.846s4.407-20.719 11.533-27.846l191.385-191.385c7.127-7.125 16.972-11.533 27.846-11.533s20.719 4.407 27.846 11.533v0c7.125 7.127 11.533 16.972 11.533 27.846s-4.407 20.719-11.533 27.846l-191.385 191.385c-7.127 7.125-16.972 11.533-27.846 11.533s-20.719-4.407-27.846-11.533v0z" />
<glyph unicode="&#xe915;" glyph-name="income" horiz-adv-x="956" d="M664.867 935.8c-19.667 2.804-40.324 0.945-60.533-6.667l-380.2-143.533c-66.293-25.052-110.333-88.774-110.333-159.667v-173.667c0-18.851 15.282-34.133 34.133-34.133v0c18.851 0 34.133 15.282 34.133 34.133v0 173.667c0 42.703 26.271 80.711 66.2 95.8l380.133 143.533c38.308 14.428 77-12.336 77-53.267v-152.467c0-18.851 15.282-34.133 34.133-34.133v0c18.851 0 34.133 15.282 34.133 34.133v0 152.467c0 64.807-49.799 115.388-108.8 123.8zM784.93 379.733c-18.842-0.137-33.997-15.428-33.997-34.27s15.292-34.133 34.133-33.997c18.842 0 34.133 15.292 34.133 34.133s-15.292 34.133-34.27 34.133zM238.933 693.733c-68.721 0-125.133-56.479-125.133-125.2v-132.2c0-18.851 15.282-34.133 34.133-34.133v0c18.851 0 34.133 15.282 34.133 34.133v0 132.2c0 31.859 25.008 56.933 56.867 56.933h546.133c56.967 0 102.4-45.433 102.4-102.4v-348.133c0-56.475-45.925-102.4-102.4-102.4h-333.933c-18.851 0-34.133-15.282-34.133-34.133v0c0-18.851 15.282-34.133 34.133-34.133v0h333.933c93.711 0 170.667 76.955 170.667 170.667v348.133c0 93.855-76.812 170.667-170.667 170.667zM307.2 527.667c-156.672 0-284.467-127.796-284.467-284.467s127.795-284.467 284.467-284.467c156.711 0 284.467 127.803 284.467 284.467s-127.756 284.467-284.467 284.467zM307.2 459.4c119.814 0 216.2-96.432 216.2-216.2s-96.386-216.2-216.2-216.2c-119.763 0-216.2 96.439-216.2 216.2s96.437 216.2 216.2 216.2zM307.2 377.133c-18.851 0-34.133-15.282-34.133-34.133v0-199.667c0-18.851 15.282-34.133 34.133-34.133v0c18.851 0 34.133 15.282 34.133 34.133v0 199.667c0 18.851-15.282 34.133-34.133 34.133v0zM207.4 277.333c-18.851 0-34.133-15.282-34.133-34.133v0c0-18.851 15.282-34.133 34.133-34.133v0h199.6c18.851 0 34.133 15.282 34.133 34.133v0c0 18.851-15.282 34.133-34.133 34.133v0z" />
<glyph unicode="&#xe916;" glyph-name="last-month" d="M307.2 950.8c-19.777-0.023-35.8-16.060-35.8-35.84 0-0.021 0-0.042 0-0.063v0.003-21.5h-66.6c-104.204 0-189.4-85.196-189.4-189.4v-563.2c0-104.204 85.196-189.4 189.4-189.4h614.4c104.204 0 189.4 85.196 189.4 189.4v563.2c0 104.204-85.196 189.4-189.4 189.4h-66.6v21.5c0 0.018 0 0.039 0 0.060 0 19.78-16.023 35.817-35.798 35.84h-0.002c-19.777-0.023-35.8-16.060-35.8-35.84 0-0.021 0-0.042 0-0.063v0.003-21.5h-338v21.5c0 0.018 0 0.039 0 0.060 0 19.78-16.023 35.817-35.798 35.84h-0.002zM204.8 821.8h66.6v-21.5c0-0.018 0-0.039 0-0.060 0-19.78 16.023-35.817 35.798-35.84h0.002c19.777 0.023 35.8 16.060 35.8 35.84 0 0.021 0 0.042 0 0.063v-0.003 21.5h338v-21.5c0-0.018 0-0.039 0-0.060 0-19.78 16.023-35.817 35.798-35.84h0.002c19.777 0.023 35.8 16.060 35.8 35.84 0 0.021 0 0.042 0 0.063v-0.003 21.5h66.6c65.473 0 117.8-52.327 117.8-117.8v-66.6h-850v66.6c0 65.473 52.327 117.8 117.8 117.8zM87 565.8h850v-425c0-65.473-52.327-117.8-117.8-117.8h-614.4c-65.473 0-117.8 52.327-117.8 117.8v425zM383.8 458.2c-47.071 0-85.968-32.687-98.2-75-0.901-2.992-1.42-6.43-1.42-9.989 0-16.223 10.779-29.929 25.567-34.346l0.254-0.065c2.984-0.896 6.413-1.412 9.962-1.412 16.257 0 29.986 10.824 34.373 25.659l0.064 0.254c4.049 14.007 14.929 23.3 29.4 23.3 17.909 0 31.7-13.746 31.7-31.7 0-13.997-10.603-24.7-24.6-24.7-19.021-0.968-34.077-16.626-34.077-35.8s15.056-34.832 33.991-35.797l0.086-0.003c13.997 0 24.6-10.703 24.6-24.7 0-17.91-13.746-31.7-31.7-31.7-14.471 0-25.351 9.293-29.4 23.3-4.451 15.088-18.18 25.912-34.438 25.912-3.549 0-6.978-0.516-10.216-1.477l0.254 0.065c-15.041-4.482-25.82-18.188-25.82-34.411 0-3.559 0.519-6.997 1.485-10.243l-0.065 0.254c12.232-42.313 51.129-75 98.2-75 56.695 0 103.4 46.662 103.4 103.3 0 23.479-11.083 43.698-25.3 60.5 14.217 16.802 25.3 37.021 25.3 60.5 0 56.695-46.762 103.3-103.4 103.3zM659.7 458.2c-8.774-0.329-16.688-3.763-22.731-9.228l-74.769-67.572c-7.24-6.582-11.766-16.038-11.766-26.551 0-9.269 3.519-17.716 9.293-24.079l-0.027 0.030c6.585-7.272 16.062-11.821 26.601-11.821 9.245 0 17.673 3.501 24.030 9.249l-0.031-0.028 14.9 13.5v-139.5h-32.8c-0.018 0-0.039 0-0.060 0-19.78 0-35.817-16.023-35.84-35.798v-0.002c0.023-19.777 16.060-35.8 35.84-35.8 0.021 0 0.042 0 0.063 0h137.197c19.763 0.023 35.777 16.037 35.8 35.798v0.002c-0.023 19.763-16.037 35.777-35.798 35.8h-32.802v220.2c-0.012 19.787-16.055 35.822-35.844 35.822-0.442 0-0.882-0.008-1.32-0.024l0.063 0.002z" />
<glyph unicode="&#xe917;" glyph-name="last-week" d="M281.6 944.6c-19.763-0.023-35.777-16.037-35.8-35.798v-39.902h-42c-104.029 0-189.53-85.661-188.9-190.2v-537.8c0-103.682 84.716-188.545 188.6-189.5 0.169-0.002 0.331 0.001 0.5 0 0.119-0.001 0.259-0.002 0.4-0.002s0.281 0.001 0.421 0.002h204.779c0.018 0 0.039 0 0.060 0 19.78 0 35.817 16.023 35.84 35.798v0.002c-0.023 19.777-16.060 35.8-35.84 35.8-0.021 0-0.042 0-0.063 0h-202.997c-0.599 0.050-1.33 0.086-2.066 0.099l-0.034 0.001c-65.822 0.396-118 52.724-118 117.8v538c0 0.030 0 0.065 0 0.1s0 0.070 0 0.105v-0.005c-0.394 65.445 52.369 118.1 117.3 118.1h42v-42c0.023-19.763 16.037-35.777 35.798-35.8h0.002c19.763 0.023 35.777 16.037 35.8 35.798v42.002h389.2v-42c0.023-19.763 16.037-35.777 35.798-35.8h0.002c19.763 0.023 35.777 16.037 35.8 35.798v42.002h39.7c64.814 0.393 117.5-52.239 117.5-117.8v-128c0.023-19.777 16.060-35.8 35.84-35.8 0.021 0 0.042 0 0.063 0h-0.003c19.763 0.023 35.777 16.037 35.8 35.798v128.002c0 99.594-78.45 179.929-176 186.8-3.806 1.614-8.224 2.597-12.86 2.699l-0.040 0.001h-40v39.9c-0.023 19.763-16.037 35.777-35.798 35.8h-0.002c-19.763-0.023-35.777-16.037-35.8-35.798v-39.902h-389.2v39.9c-0.023 19.763-16.037 35.777-35.798 35.8h-0.002zM203.5-48.6l-2.8 0.2 0.5-0.1c0.67-0.054 1.471-0.090 2.278-0.1h0.022zM741.4 484.9c-145.475-1.768-264.035-119.791-265.8-265.8v-0.3c-0.019-0.065-0.3-0.8-0.3-0.8 0-0.008 2.496-13.090 2.5-13.1 0.001-0.002 0.386-0.882 0.6-1.3 7.708-139.552 121.602-252.2 263.5-252.2h0.5v1.8c146.045 0.86 264.612 119.567 265.2 265.3v0.1c0 146.775-119.359 266.3-265.7 266.3h-0.5zM742.1 413.2c107.515-0.109 193.8-86.468 193.8-194.6-0.543-107.594-86.868-194-195-194v-1.4c-107.606 0.569-193.6 87.143-193.6 194.4v0.6c1.304 107.875 87.442 193.588 194.8 195zM737 331.1c-0.018 0-0.039 0-0.060 0-19.78 0-35.817-16.023-35.84-35.798v-89.602c0.005-12.897 6.821-24.201 17.046-30.511l0.154-0.089 70.6-43.2c5.325-3.308 11.787-5.27 18.707-5.27 12.889 0 24.189 6.804 30.504 17.016l0.089 0.154c3.308 5.325 5.27 11.787 5.27 18.707 0 12.889-6.804 24.189-17.016 30.504l-0.154 0.089-53.5 32.7v69.5c-0.023 19.763-16.037 35.777-35.798 35.8h-0.002z" />
<glyph unicode="&#xe918;" glyph-name="main" d="M510.9 951.1c-33.252-0.067-64.384-15.521-94.1-32.6-7.804-4.485-17.447-2.938-24.7-8.6-0.202-0.157-0.499-0.042-0.7-0.2 0.028 0.151-0.006 0.017-0.040-0.118l-0.060-0.282-306.4-238.5c0-0.015 0-0.032 0-0.050s0-0.035 0-0.053v0.003c-47.304-36.936-74.7-93.652-74.7-153.6v-370.9c-0.627-0.795-1.285-1.707-1.905-2.647l-0.095-0.153c0-106.581 87.302-193.735 194.1-194.5 0.075-0.001 0.125-0.097 0.2-0.102 0.119-0.001 0.259-0.002 0.4-0.002s0.281 0.001 0.421 0.002h614.379c106.822 0 194.5 87.678 194.5 194.5v375.303c0 59.475-27.045 116.526-74.7 153.2l-0.102 0.1-307.098 238.5c-34.999 27.221-77.172 40.786-119.4 40.7zM511.1 869.4c24.333 0.042 48.603-7.913 68.9-23.7 0.015 0 0.033 0 0.051 0s0.036 0 0.054 0h-0.003l307.2-238.6c-0.166 0.074-0.1 0.041-0.035 0.008l0.234-0.107c26.954-20.677 42.8-53.762 42.8-88.4v-375.3c0-62.138-50.462-112.6-112.6-112.6l-610.902-0.2c-1.129 0.119-2.45 0.191-3.787 0.2h-0.013c-61.702 0.372-109.384 48.806-111.5 109.2 0.172 0.211 0.401 0.504 0.627 0.8l0.073 0.1v376.3c0 35.236 15.621 67.568 43 89l0.1 0.1 307.1 239c-0.040-0.098 0.027 0.033 0.093 0.164l0.107 0.236c20.218 15.75 44.346 23.758 68.5 23.8zM614.4 463.4c-0.010 0-0.022 0-0.034 0-11.312 0-21.554-4.586-28.966-12l-99-99-47.8 47.8c-7.416 7.434-17.671 12.034-29 12.034s-21.584-4.599-28.999-12.033l-0.001-0.001c-7.434-7.416-12.034-17.671-12.034-29s4.6-21.584 12.033-28.999l76.801-76.801c7.416-7.433 17.671-12.032 29-12.032s21.584 4.599 28.999 12.031l128.001 128.001c7.434 7.416 12.034 17.671 12.034 29s-4.6 21.584-12.033 28.999l-0.001 0.001c-7.413 7.414-17.654 12-28.966 12-0.012 0-0.024 0-0.036 0h0.002z" />
<glyph unicode="&#xe919;" glyph-name="menu" d="M113.778 960c62.838 0 113.778-50.94 113.778-113.778s-50.94-113.778-113.778-113.778c-62.838 0-113.778 50.94-113.778 113.778s50.94 113.778 113.778 113.778zM113.778 561.778c62.838 0 113.778-50.94 113.778-113.778s-50.94-113.778-113.778-113.778c-62.838 0-113.778 50.94-113.778 113.778s50.94 113.778 113.778 113.778zM113.778 163.556c62.838 0 113.778-50.94 113.778-113.778s-50.94-113.778-113.778-113.778c-62.838 0-113.778 50.94-113.778 113.778s50.94 113.778 113.778 113.778zM512 960c62.838 0 113.778-50.94 113.778-113.778s-50.94-113.778-113.778-113.778c-62.838 0-113.778 50.94-113.778 113.778s50.94 113.778 113.778 113.778zM512 561.778c62.838 0 113.778-50.94 113.778-113.778s-50.94-113.778-113.778-113.778c-62.838 0-113.778 50.94-113.778 113.778s50.94 113.778 113.778 113.778zM512 163.556c62.838 0 113.778-50.94 113.778-113.778s-50.94-113.778-113.778-113.778c-62.838 0-113.778 50.94-113.778 113.778s50.94 113.778 113.778 113.778zM910.222 960c62.838 0 113.778-50.94 113.778-113.778s-50.94-113.778-113.778-113.778c-62.838 0-113.778 50.94-113.778 113.778s50.94 113.778 113.778 113.778zM910.222 561.778c62.838 0 113.778-50.94 113.778-113.778s-50.94-113.778-113.778-113.778c-62.838 0-113.778 50.94-113.778 113.778s50.94 113.778 113.778 113.778zM910.222 163.556c62.838 0 113.778-50.94 113.778-113.778s-50.94-113.778-113.778-113.778c-62.838 0-113.778 50.94-113.778 113.778s50.94 113.778 113.778 113.778z" />
<glyph unicode="&#xe91a;" glyph-name="news" horiz-adv-x="1065" d="M174.080 929.28c-38.006 0-74.486-15.126-101.36-42s-42-63.354-42-101.36v-665.6c0-38.005 15.128-74.484 42-101.36 26.874-26.872 63.354-42 101.36-42h102.4c22.622 0 40.96 18.338 40.96 40.96v0c0 22.622-18.338 40.96-40.96 40.96v0h-102.4c-16.31 0-31.907 6.468-43.44 18-11.535 11.537-18 27.132-18 43.44v665.6c0 16.311 6.467 31.907 18 43.44s27.129 18 43.44 18h716.8c16.308 0 31.903-6.465 43.44-18 11.532-11.533 18-27.13 18-43.44v-665.6c0-16.308-6.466-31.903-18-43.44-11.537-11.534-27.132-18-43.44-18h-102.4c-22.622 0-40.96-18.338-40.96-40.96v0c0-22.622 18.338-40.96 40.96-40.96v0h102.4c38.005 0 74.485 15.13 101.36 42 26.87 26.875 42 63.355 42 101.36v665.6c0 38.006-15.128 74.486-42 101.36-26.876 26.872-63.355 42-101.36 42zM276.48 417.28c-22.622 0-40.96-18.338-40.96-40.96v0c0-22.622 18.338-40.96 40.96-40.96v0h512c22.622 0 40.96 18.338 40.96 40.96v0c0 22.622-18.338 40.96-40.96 40.96v0zM276.48 622.080c-22.622 0-40.96-18.338-40.96-40.96v0c0-22.622 18.338-40.96 40.96-40.96v0h512c22.622 0 40.96 18.338 40.96 40.96v0c0 22.622-18.338 40.96-40.96 40.96v0zM618.72 149.28l-99.040-99.040-47.84 47.84c-7.412 7.41-17.651 11.994-28.96 11.994s-21.548-4.583-28.96-11.994v0c-7.41-7.412-11.994-17.651-11.994-28.96s4.583-21.548 11.994-28.96l76.8-76.8c7.412-7.409 17.651-11.992 28.96-11.992s21.548 4.583 28.96 11.992l128 128c7.41 7.412 11.994 17.651 11.994 28.96s-4.583 21.548-11.994 28.96v0c-7.412 7.41-17.651 11.994-28.96 11.994s-21.548-4.583-28.96-11.994v0z" />
<glyph unicode="&#xe91b;" glyph-name="notification-bell" horiz-adv-x="970" d="M350.842 194.737c-0.012 0-0.027 0-0.042 0-23.812 0-43.116-19.304-43.116-43.116 0-0.015 0-0.030 0-0.044v0.002-27.579c0-46.982 18.675-92.148 51.895-125.368 33.222-33.222 78.388-51.895 125.368-51.895h0.105c23.27-0.007 46.274 4.569 67.79 13.474 21.524 8.9 41.119 21.976 57.579 38.421 16.478 16.457 29.506 35.969 38.421 57.474 8.917 21.501 13.459 44.623 13.474 67.895v27.579c0 0.013 0 0.027 0 0.042 0 23.79-19.268 43.080-43.049 43.116h-0.003c-0.012 0-0.027 0-0.042 0-23.812 0-43.116-19.304-43.116-43.116 0-0.015 0-0.030 0-0.044v0.002-27.579c-0.007-11.964-2.369-23.802-6.947-34.842-4.58-11.048-11.23-21.031-19.684-29.474-8.461-8.454-18.544-15.227-29.579-19.79-11.041-4.569-22.88-6.846-34.842-6.842h-0.105c-24.146 0-47.244 9.559-64.316 26.632-17.074 17.074-26.632 40.168-26.632 64.316v27.579c0 0.012 0 0.027 0 0.042 0 23.812-19.304 43.116-43.116 43.116-0.015 0-0.030 0-0.044 0h0.002zM485.053 949.263c-97.181 0-190.44-38.651-259.158-107.368s-107.368-161.977-107.368-259.158v-211.684c-24.184-5.941-49.583-10.109-67.474-28-25.761-25.761-40.316-60.726-40.316-97.158s14.555-71.396 40.316-97.158c25.761-25.762 60.724-40.316 97.158-40.316h673.684c36.433 0 71.397 14.555 97.158 40.316s40.316 60.725 40.316 97.158c0 36.433-14.555 71.397-40.316 97.158-17.89 17.89-43.291 22.059-67.474 28v211.684c0 97.18-38.646 190.44-107.368 259.158-68.716 68.718-161.977 107.368-259.158 107.368zM485.053 862.947c74.344 0 145.642-29.431 198.211-82 52.573-52.569 82-123.866 82-198.211v-242.526c0-0.011 0-0.025 0-0.038 0-23.815 19.306-43.12 43.12-43.12 0.013 0 0.027 0 0.040 0h13.472c13.592 0 26.595-5.331 36.211-14.947s14.947-22.619 14.947-36.211c0-13.592-5.331-26.595-14.947-36.211s-22.619-14.947-36.211-14.947h-673.684c-13.594 0-26.596 5.333-36.211 14.947s-14.947 22.617-14.947 36.211c0 13.594 5.333 26.596 14.947 36.211s22.616 14.947 36.211 14.947h13.474c0.011 0 0.025 0 0.038 0 23.815 0 43.12 19.306 43.12 43.12 0 0.013 0 0.027 0 0.040v-0.002 242.526c0 74.344 29.431 145.641 82 198.211s123.866 82 198.211 82z" />
<glyph unicode="&#xe91c;" glyph-name="open-envelope" d="M301.296 581.778c-21.503 0-42.165-8.533-57.37-23.741-15.208-15.205-23.741-35.868-23.741-57.37v-102.704c0-15.709 12.735-28.444 28.444-28.444v0c15.709 0 28.444 12.735 28.444 28.444v0 102.704c0 6.441 2.523 12.598 7.074 17.148 0.006 0 0.012 0 0.019 0s0.013 0 0.020 0h-0.001c4.55 4.551 10.67 7.074 17.111 7.074h421.407c6.438 0 12.558-2.521 17.111-7.074 4.552-4.552 7.111-10.709 7.111-17.148v-102.593c0-15.709 12.735-28.444 28.444-28.444v0c15.709 0 28.444 12.735 28.444 28.444v0 102.593c0 21.505-8.537 42.167-23.741 57.37-15.206 15.206-35.869 23.741-57.37 23.741zM33.889 581.519c-7.692-1.142-14.263-5.221-18.652-11.039l-0.052-0.072c-3.554-4.696-5.693-10.634-5.693-17.073 0-9.266 4.431-17.497 11.289-22.691l0.071-0.052 379.259-284.444c32.274-24.204 71.547-37.296 111.889-37.296s79.615 13.093 111.889 37.296l379.259 284.444c6.929 5.245 11.36 13.476 11.36 22.742 0 6.438-2.139 12.377-5.745 17.144l0.052-0.071c-5.244 6.943-13.484 11.384-22.76 11.384-6.43 0-12.362-2.134-17.127-5.732l0.072 0.052-379.259-284.444c-22.434-16.824-49.699-25.926-77.741-25.926s-55.307 9.101-77.741 25.926l-379.259 284.444c-4.696 3.555-10.636 5.695-17.075 5.695-1.424 0-2.823-0.105-4.191-0.307l0.155 0.019zM512 950.519c-40.98 0-80.833-13.492-113.37-38.407l-336.704-257.852c-16.309-12.49-29.534-28.579-38.63-47s-13.815-38.678-13.815-59.222v-416.074c0-49.443 19.668-96.89 54.63-131.852s82.408-54.63 131.852-54.63h632.074c49.443 0 96.89 19.668 131.852 54.63s54.63 82.409 54.63 131.852v416.074c0 20.544-4.722 40.804-13.815 59.222-9.095 18.419-22.317 34.509-38.63 47l-336.704 257.852c-32.538 24.915-72.388 38.407-113.37 38.407zM512 893.63c28.487 0 56.16-9.384 78.778-26.704l336.704-257.815c9.374-7.178 16.955-16.446 22.185-27.037 5.228-10.591 7.963-22.23 7.963-34.037v-416.074c0-34.377-13.654-67.321-37.963-91.63s-57.253-37.963-91.63-37.963h-632.074c-34.377 0-67.321 13.654-91.63 37.963s-37.963 57.253-37.963 91.63v416.074c0 11.81 2.734 23.445 7.963 34.037 5.228 10.589 12.807 19.855 22.185 27.037l336.704 257.815c22.618 17.32 50.293 26.704 78.778 26.704z" />
<glyph unicode="&#xe91d;" glyph-name="ott-code" d="M372.375 589.125c-77.354 0-141.125-63.771-141.125-141.125s63.771-141.125 141.125-141.125c77.354 0 141.125 63.771 141.125 141.125s-63.771 141.125-141.125 141.125zM372.375 493.125c25.472 0 45.125-19.653 45.125-45.125s-19.653-45.125-45.125-45.125c-25.471 0-45.125 19.654-45.125 45.125s19.654 45.125 45.125 45.125zM465.375 496c-26.51 0-48-21.49-48-48v0c0-26.51 21.49-48 48-48v0h279.375c26.51 0 48 21.49 48 48v0c0 26.51-21.49 48-48 48v0zM744.75 496c-26.51 0-48-21.49-48-48v0-93.125c0-26.51 21.49-48 48-48v0c26.51 0 48 21.49 48 48v0 93.125c0 26.51-21.49 48-48 48v0zM605.125 496c-26.51 0-48-21.49-48-48v0-93.125c0-26.51 21.49-48 48-48v0c26.51 0 48 21.49 48 48v0 93.125c0 26.51-21.49 48-48 48v0zM325.875 914.875c-154.472 0-280.75-126.278-280.75-280.75v-372.25c0-154.472 126.277-280.75 280.75-280.75h372.25c154.473 0 280.75 126.277 280.75 280.75v372.25c0 154.473-126.278 280.75-280.75 280.75zM325.875 818.875h372.25c102.59 0 184.75-82.161 184.75-184.75v-372.25c0-102.589-82.161-184.75-184.75-184.75h-372.25c-102.589 0-184.75 82.16-184.75 184.75v372.25c0 102.59 82.16 184.75 184.75 184.75z" />
<glyph unicode="&#xe91e;" glyph-name="password" horiz-adv-x="1280" d="M640 947.25c-253.301 0-485.752-208.748-613.5-445-18.263-33.852-18.263-74.648 0-108.5 127.747-236.318 360.199-445 613.5-445s485.752 208.748 613.5 445c18.264 33.852 18.264 74.648 0 108.5-127.747 236.318-360.198 445-613.5 445zM640 844.75c194.059 0 408.946-179.569 523.375-391.25 1.772-3.381 1.812-7.767 0-11.125-114.428-211.619-329.316-391.125-523.375-391.125-194.031 0-408.934 179.483-523.375 391.125-1.832 3.396-1.832 7.854 0 11.25 114.428 211.619 329.316 391.125 523.375 391.125zM640 690.875c-62.347 0-124.727-23.602-172-70.875-94.547-94.547-94.547-249.455 0-344 94.546-94.548 249.452-94.548 344 0 94.549 94.545 94.549 249.454 0 344-47.274 47.273-109.653 70.875-172 70.875zM640 589.125c35.927 0 71.792-13.917 99.5-41.625 55.416-55.415 55.415-143.587 0-199-55.417-55.417-143.585-55.416-199 0-0.019 0-0.040 0-0.062 0s-0.044 0-0.066 0h0.003c-55.414 55.413-55.414 143.586 0 199 27.707 27.707 63.698 41.625 99.625 41.625z" />
<glyph unicode="&#xe91f;" glyph-name="pause" d="M613.111 645.222c-25.106-0.038-45.444-20.399-45.444-45.511 0-0.016 0-0.031 0-0.047v0.002-303.333c0-0.013 0-0.029 0-0.044 0-25.112 20.338-45.473 45.441-45.511h0.004c0.013 0 0.029 0 0.044 0 25.135 0 45.511 20.376 45.511 45.511 0 0.016 0 0.031 0 0.047v-0.002 303.333c0 0.013 0 0.029 0 0.044 0 25.135-20.376 45.511-45.511 45.511-0.016 0-0.031 0-0.047 0h0.002zM410.889 645.222c-0.013 0-0.029 0-0.044 0-25.135 0-45.511-20.376-45.511-45.511 0-0.016 0-0.031 0-0.047v0.002-303.333c0-0.013 0-0.029 0-0.044 0-25.135 20.376-45.511 45.511-45.511 0.016 0 0.031 0 0.047 0h-0.002c25.106 0.038 45.444 20.399 45.444 45.511 0 0.016 0 0.031 0 0.047v-0.002 303.333c0 0.013 0 0.029 0 0.044 0 25.112-20.338 45.473-45.441 45.511h-0.004zM512 948.667c-275.964 0-500.667-224.703-500.667-500.667 0-275.966 224.703-500.667 500.667-500.667s500.667 224.701 500.667 500.667c0 275.964-224.701 500.667-500.667 500.667zM512 857.556c226.784 0 409.556-182.774 409.556-409.556 0-226.784-182.772-409.556-409.556-409.556-226.782 0-409.556 182.772-409.556 409.556 0 226.782 182.774 409.556 409.556 409.556z" />
<glyph unicode="&#xe920;" glyph-name="personal-account" horiz-adv-x="951" d="M588.929 955.357c-21.077 2.651-42.466-0.033-62.286-7.714l-407.357-157.857c-34.16-13.239-63.471-36.771-84.071-67.357s-31.571-66.767-31.571-103.786v-95.5c0-0.004 0-0.009 0-0.014 0-18.178 14.736-32.914 32.914-32.914 0.005 0 0.010 0 0.015 0h-0.001c0.004 0 0.009 0 0.014 0 18.178 0 32.914 14.736 32.914 32.914 0 0.005 0 0.010 0 0.015v-0.001 95.5c0 23.995 7.154 47.397 20.357 67s31.763 34.472 53.214 42.786l407.357 157.857c9.7 3.759 20.043 5.002 30.286 3.714s20.041-5.040 28.643-11.143c8.597-6.1 15.703-14.329 20.643-24 4.94-9.668 7.571-20.491 7.571-31.5v-150.071c0-0.004 0-0.009 0-0.014 0-18.178 14.736-32.914 32.914-32.914 0.005 0 0.010 0 0.015 0h-0.001c18.153 0.033 32.857 14.756 32.857 32.914 0 0.005 0 0.010 0 0.015v-0.001 150.071c0 21.377-4.997 42.413-14.714 61.429-9.711 19.012-23.853 35.397-41.214 47.714-17.356 12.314-37.422 20.206-58.5 22.857zM182.857 706.214c-99.049 0-179.214-82.816-179.214-183.071v-400.429c0-100.256 80.165-183.071 179.214-183.071h585.143c99.049 0 179.214 82.815 179.214 183.071v400.429c0 100.256-80.166 183.071-179.214 183.071zM182.857 640.357h585.143c62.532 0 113.357-51.62 113.357-117.214v-400.429c0-65.595-50.826-117.214-113.357-117.214h-585.143c-62.533 0-113.357 51.619-113.357 117.214v400.429c0 65.594 50.824 117.214 113.357 117.214zM804.571 320c0-30.297-24.56-54.857-54.857-54.857s-54.857 24.56-54.857 54.857c0 30.297 24.56 54.857 54.857 54.857s54.857-24.56 54.857-54.857z" />
<glyph unicode="&#xe921;" glyph-name="phone" horiz-adv-x="652" d="M139.636 950.727c-73.773 0-130.364-65.484-130.364-140.727v-724c0-75.244 56.591-140.727 130.364-140.727h372.364c73.772 0 130.364 65.483 130.364 140.727v724c0 75.243-56.591 140.727-130.364 140.727zM139.636 876.182h372.364c29.092 0 55.818-27.13 55.818-66.182v-724c0-39.053-26.725-66.182-55.818-66.182h-372.364c-29.093 0-55.818 27.129-55.818 66.182v724c0 39.052 26.726 66.182 55.818 66.182zM325.635 189.417c-25.693 0-46.545-23.17-46.358-51.721 0-28.546 20.852-51.717 46.545-51.717s46.545 23.17 46.545 51.717c0 28.551-20.852 51.721-46.731 51.721zM267.636 795.545c-0.011 0-0.024 0-0.036 0-20.565 0-37.236-16.671-37.236-37.236 0-0.013 0-0.026 0-0.038v0.002c0.031-20.542 16.69-37.182 37.236-37.182 0.013 0 0.026 0 0.038 0h116.362c0.011 0 0.024 0 0.036 0 20.546 0 37.205 16.64 37.236 37.179v0.003c0 0.011 0 0.024 0 0.036 0 20.565-16.671 37.236-37.236 37.236-0.013 0-0.026 0-0.038 0h0.002z" />
<glyph unicode="&#xe922;" glyph-name="profile" horiz-adv-x="819" d="M409.6 282.1c-189.28 0-353.685-99.505-384.3-248.9-0.587-2.76-0.924-5.931-0.924-9.18 0-22.137 15.609-40.627 36.422-45.066l0.302-0.054c2.788-0.6 5.992-0.943 9.276-0.943 22.144 0 40.639 15.619 45.070 36.442l0.054 0.302c18.472 90.139 137.597 175.2 294.1 175.2s275.627-85.060 294.1-175.2c4.485-21.124 22.981-36.743 45.124-36.743 3.284 0 6.487 0.343 9.577 0.996l-0.301-0.053c21.114 4.493 36.724 22.984 36.724 45.12 0 3.249-0.336 6.42-0.976 9.48l0.052-0.3c-30.617 149.394-195.019 248.9-384.3 248.9zM409.6 917.8c-66.145 0-132.3-25.1-182.5-75.3-100.4-100.4-100.4-264.6 0-365 100.4-100.403 264.598-100.402 365 0 100.4 100.4 100.4 264.6 0 365-50.201 50.2-116.355 75.3-182.5 75.3zM409.6 826.2c42.366 0 84.708-16.309 117.3-48.9 65.181-65.181 65.181-169.419 0-234.6-65.184-65.184-169.418-65.184-234.6 0-65.181 65.181-65.181 169.419 0 234.6 32.591 32.591 74.934 48.9 117.3 48.9z" />
<glyph unicode="&#xe923;" glyph-name="promised-payment" horiz-adv-x="1229" d="M68.24 937.28c-22.622 0-40.96-18.338-40.96-40.96v0c0-22.622 18.338-40.96 40.96-40.96h1092.32c22.622 0 40.96 18.338 40.96 40.96v0c0 22.622-18.338 40.96-40.96 40.96v0zM189.6 937.28c-22.621-0.002-40.958-18.339-40.96-40.96v0-788.88c0-43.034 17.167-84.37 47.6-114.8 30.43-30.432 71.764-47.52 114.8-47.52h303.36c22.622 0 40.96 18.338 40.96 40.96v0c0 22.622-18.338 40.96-40.96 40.96v0h-303.36c-21.339 0-41.79 8.429-56.88 23.52-15.087 15.085-23.6 35.542-23.6 56.88v747.92h767.68v-444.56c0-22.622 18.338-40.96 40.96-40.96v0c22.622 0 40.96 18.338 40.96 40.96v0 485.52c-0.002 22.621-18.339 40.958-40.96 40.96v0zM796.48 148.4c-22.622 0-40.96-18.338-40.96-40.96v0c0-22.622 18.338-40.96 40.96-40.96v0h242.72c22.622 0 40.96 18.338 40.96 40.96v0c0 22.622-18.338 40.96-40.96 40.96v0zM917.84 269.76c-22.622 0-40.96-18.338-40.96-40.96v0-242.72c0-22.622 18.338-40.96 40.96-40.96v0c22.622 0 40.96 18.338 40.96 40.96v0 242.72c0 22.622-18.338 40.96-40.96 40.96v0zM614.4 694.56c-122.677 0-222.96-100.364-222.96-223.040s100.284-223.040 222.96-223.040c122.676 0 223.040 100.363 223.040 223.040s-100.363 223.040-223.040 223.040zM614.4 612.64c78.404 0 141.12-62.717 141.12-141.12s-62.716-141.12-141.12-141.12c-78.404 0-141.040 62.716-141.040 141.12s62.636 141.12 141.040 141.12z" />
<glyph unicode="&#xe924;" glyph-name="services" horiz-adv-x="1109" d="M181.333 685c-39.589 0-77.589-15.673-105.583-43.667s-43.75-66.078-43.75-105.667v-450.333c0-39.591 15.754-77.59 43.75-105.583 27.994-27.991 65.994-43.75 105.583-43.75h533.333c39.589 0 77.588 15.761 105.583 43.75 27.993 27.993 43.75 65.992 43.75 105.583v106.667c0 23.564-19.103 42.667-42.667 42.667v0c-23.564 0-42.667-19.103-42.667-42.667v0-106.667c0-16.993-6.739-33.239-18.75-45.25-12.018-12.015-28.263-18.75-45.25-18.75h-533.333c-16.99 0-33.236 6.737-45.25 18.75-12.012 12.011-18.75 28.256-18.75 45.25v450.333c0 16.99 6.736 33.236 18.75 45.25s28.26 18.75 45.25 18.75h106.667c23.564 0 42.667 19.103 42.667 42.667v0c0 23.564-19.103 42.667-42.667 42.667v0zM394.667 928c-39.589 0-77.589-15.756-105.583-43.75s-43.75-65.994-43.75-105.583v-480c0-39.588 15.758-77.588 43.75-105.583 27.994-27.991 65.994-43.75 105.583-43.75h533.333c39.589 0 77.588 15.761 105.583 43.75 27.989 27.995 43.75 65.995 43.75 105.583v373.333c0 39.59-15.759 77.59-43.75 105.583-27.995 27.992-65.995 43.75-105.583 43.75h-238.417c-1.739 0-3.464 0.437-5 1.25-1.539 0.814-2.858 1.982-3.833 3.417l-40.833 60c-8.803 12.931-20.67 23.514-34.5 30.833-13.835 7.322-29.184 11.167-44.833 11.167zM394.667 842.667h165.917c1.742 0 3.383-0.438 4.917-1.25 1.538-0.814 2.848-1.97 3.833-3.417l40.833-60c8.804-12.944 20.67-23.514 34.5-30.833 13.833-7.321 29.265-11.167 44.917-11.167h238.417c16.988 0 33.233-6.734 45.25-18.75 12.013-12.014 18.75-28.26 18.75-45.25v-373.333c0-16.987-6.735-33.232-18.75-45.25-12.018-12.015-28.263-18.75-45.25-18.75h-533.333c-16.99 0-33.236 6.737-45.25 18.75-12.016 12.017-18.75 28.262-18.75 45.25v480c0 16.99 6.736 33.236 18.75 45.25s28.26 18.75 45.25 18.75z" />
<glyph unicode="&#xe925;" glyph-name="support" horiz-adv-x="1065" d="M174.080 921.12c-74.271 0-135.2-60.929-135.2-135.2v-614.4c0-74.27 60.929-135.2 135.2-135.2h619.040l160.64-85.68c31.452-16.77 72.32 7.72 72.32 43.36v791.92c0 74.271-60.93 135.2-135.2 135.2zM174.080 855.52h716.8c38.854 0 69.6-30.745 69.6-69.6v-764.56l-140.16 74.72c-7.146 3.814-15.072 5.76-23.12 5.76h-623.12c-38.855 0-69.6 30.826-69.6 69.68v614.4c0 38.856 30.744 69.6 69.6 69.6zM577.7 513.782c25.039-25.055 25.039-65.454 0-90.509-25.035-25.055-65.405-25.055-90.44 0-25.039 25.055-25.039 65.454 0 90.509 25.035 25.059 65.405 24.801 90.44 0zM810.66 513.782c25.039-25.055 25.039-65.454 0-90.509-25.035-25.055-65.405-25.055-90.44 0-25.039 25.055-25.039 65.454 0 90.509 25.035 25.059 65.405 24.801 90.44 0zM344.721 513.782c25.038-25.055 25.038-65.454 0-90.509s-65.405-25.055-90.443 0c-25.038 25.055-25.038 65.454 0 90.509 25.038 25.059 65.405 24.801 90.443 0z" />
<glyph unicode="&#xe926;" glyph-name="tariffs" d="M708.923 930.462c-89.259 0-162.462-73.203-162.462-162.462v-123.077c0-89.258 73.203-162.462 162.462-162.462h123.077c89.259 0 162.462 73.203 162.462 162.462v123.077c0 89.258-73.203 162.462-162.462 162.462zM708.923 851.692h123.077c46.689 0 83.692-37.004 83.692-83.692v-123.077c0-46.689-37.003-83.692-83.692-83.692h-123.077c-46.689 0-83.692 37.004-83.692 83.692v123.077c0 46.689 37.003 83.692 83.692 83.692zM708.923 413.538c-89.259 0-162.462-73.203-162.462-162.462v-123.077c0-89.259 73.203-162.462 162.462-162.462h123.077c89.259 0 162.462 73.203 162.462 162.462v123.077c0 89.259-73.203 162.462-162.462 162.462zM708.923 334.769h123.077c46.689 0 83.692-37.003 83.692-83.692v-123.077c0-46.689-37.003-83.692-83.692-83.692h-123.077c-46.689 0-83.692 37.003-83.692 83.692v123.077c0 46.689 37.003 83.692 83.692 83.692zM192 930.462c-89.258 0-162.462-73.203-162.462-162.462v-123.077c0-89.258 73.203-162.462 162.462-162.462h123.077c89.258 0 162.462 73.203 162.462 162.462v123.077c0 89.258-73.203 162.462-162.462 162.462zM192 851.692h123.077c46.688 0 83.692-37.004 83.692-83.692v-123.077c0-46.688-37.004-83.692-83.692-83.692h-123.077c-46.688 0-83.692 37.004-83.692 83.692v123.077c0 46.688 37.004 83.692 83.692 83.692zM192 413.538c-89.258 0-162.462-73.203-162.462-162.462v-123.077c0-89.259 73.203-162.462 162.462-162.462h123.077c89.258 0 162.462 73.203 162.462 162.462v123.077c0 89.259-73.203 162.462-162.462 162.462zM192 334.769h123.077c46.689 0 83.692-37.003 83.692-83.692v-123.077c0-46.689-37.004-83.692-83.692-83.692h-123.077c-46.689 0-83.692 37.003-83.692 83.692v123.077c0 46.689 37.004 83.692 83.692 83.692z" />
<glyph unicode="&#xe927;" glyph-name="warning" d="M511.762-64c-70.457 0-136.629 13.334-198.516 40.009-61.888 26.353-116.317 63.027-163.288 110.021-46.971 46.987-83.786 101.442-110.445 163.361-26.342 61.916-39.513 128.119-39.513 198.608s13.171 136.692 39.513 198.608c26.659 61.916 63.475 116.371 110.445 163.364 46.971 47.31 101.4 84.142 163.288 110.497s128.059 39.531 198.516 39.531c70.774 0 137.104-13.177 198.992-39.531 61.891-26.354 116.316-63.186 163.289-110.497 46.972-46.993 83.624-101.448 109.97-163.364 26.661-61.916 39.987-128.119 39.987-198.608s-13.327-136.692-39.987-198.608c-26.346-61.919-62.998-116.374-109.97-163.361-46.972-46.994-101.398-83.668-163.289-110.021-61.888-26.675-128.218-40.009-198.992-40.009zM512.714 386.084c38.72 0 59.349 20.004 61.888 60.011l8.569 176.224c1.269 20.639-4.761 37.308-18.090 50.009-13.33 13.018-30.944 19.527-52.843 19.527-22.216 0-39.989-6.35-53.318-19.051-13.012-12.701-18.883-29.371-17.614-50.009l8.093-177.652c2.539-39.372 23.644-59.058 63.315-59.058zM512.714 207.002c21.264 0 38.878 5.873 52.843 17.62 14.282 11.752 21.422 27.786 21.422 48.108 0 20.004-7.14 35.721-21.422 47.152-13.964 11.748-31.579 17.622-52.843 17.622-21.581 0-39.513-5.874-53.794-17.622-14.282-11.431-21.423-27.148-21.423-47.152 0-20.321 7.141-36.356 21.423-48.108 14.599-11.747 32.531-17.62 53.794-17.62z" />
<glyph unicode="&#xe928;" glyph-name="warning-outlines" horiz-adv-x="1117" d="M555.455-23.729c-65.455 0-126.819 12.428-184.091 37.274-57.273 24.546-107.728 58.485-151.364 101.819-43.333 43.333-77.273 93.636-101.818 150.909s-36.818 118.637-36.818 184.091c0 65.455 12.273 126.819 36.818 184.091s58.485 107.576 101.818 150.909c43.636 43.636 94.091 77.727 151.364 102.273s118.636 36.818 184.091 36.818c65.454 0 126.818-12.273 184.091-36.818s107.575-58.637 150.909-102.273c43.331-43.333 77.272-93.636 101.82-150.909 24.846-57.272 37.274-118.636 37.274-184.091s-12.428-126.818-37.274-184.091c-24.548-57.272-58.489-107.576-101.82-150.909-43.334-43.334-93.636-77.273-150.909-101.819-57.273-24.846-118.637-37.274-184.091-37.274zM555.455 80.364c51.212 0 99.091 9.546 143.636 28.637 44.848 19.091 84.091 45.606 117.726 79.545 33.94 34.243 60.455 73.637 79.546 118.182 19.394 44.848 29.091 92.728 29.091 143.636 0 51.212-9.697 99.091-29.091 143.636-19.091 44.848-45.606 84.243-79.546 118.182-33.636 33.939-72.878 60.454-117.726 79.545-44.546 19.091-92.424 28.637-143.636 28.637s-99.242-9.546-144.091-28.637c-44.546-19.091-83.788-45.606-117.727-79.545s-60.455-73.333-79.546-118.182c-19.090-44.546-28.636-92.424-28.636-143.636 0-50.909 9.546-98.788 28.636-143.636 19.091-44.545 45.606-83.939 79.546-118.182 33.939-33.939 73.182-60.454 117.727-79.545 44.848-19.091 92.879-28.637 144.091-28.637zM475.909 204c-10.606 0-19.545 3.333-26.818 10-7.273 6.97-10.909 15.909-10.909 26.818 0 10.303 3.636 18.939 10.909 25.909s16.212 10.455 26.818 10.455h52.273v176.364h-44.091c-10.607 0-19.546 3.334-26.819 10-7.273 6.97-10.909 15.909-10.909 26.819 0 10.303 3.636 18.939 10.909 25.909s16.212 10.454 26.819 10.454h85.909c13.333 0 23.485-4.394 30.455-13.182 6.97-8.484 10.454-19.848 10.454-34.091v-202.273h46.818c10.606 0 19.545-3.485 26.819-10.455s10.908-15.606 10.908-25.909c0-10.908-3.636-19.848-10.908-26.818-7.273-6.667-16.213-10-26.819-10h-181.819zM553.637 593.546c-17.273 0-32.122 6.060-44.546 18.182-12.424 12.424-18.637 27.273-18.637 44.545 0 17.879 6.213 32.879 18.637 45 12.424 12.425 27.273 18.637 44.546 18.637 17.576 0 32.424-6.212 44.545-18.637 12.121-12.121 18.182-27.121 18.182-45 0-17.272-6.060-32.121-18.182-44.545-12.121-12.121-26.969-18.182-44.545-18.182z" />
<glyph unicode="&#xe929;" glyph-name="coquettish-pirate" d="M149.452 869.12l-55.41-55.41 95.407-95.407c-71.748-63.108-133.060-142.422-178.264-226.020-14.908-27.635-14.908-60.938 0-88.571 104.284-192.914 294.038-363.265 500.816-363.265 93.624 0 183.688 35.188 263.979 91.324l101.735-101.735 55.41 55.41-95.304 95.304c70.31 62.623 130.497 140.66 175.001 222.956 14.908 27.635 14.908 60.938 0 88.571-104.285 192.914-294.040 363.265-500.816 363.265-92.186 0-180.95-34.045-260.306-88.675l-102.247 102.247zM512 771.876c158.415 0 333.834-146.586 427.244-319.385 1.448-2.761 1.478-6.341 0-9.081-40.988-75.797-97.843-146.502-162.041-202.042l-121.328 121.328c-1.123 1.462-2.261 2.761-3.472 3.984l0.003-0.003c-0.527 0.419-1.16 0.888-1.802 1.342l-0.137 0.091-216.020 216.020c-1.187 1.58-2.392 2.98-3.679 4.292l0.006-0.006c-0.622 0.49-1.354 1.029-2.102 1.539l-0.145 0.093-114.795 114.795c64.348 41.642 132.726 67.039 198.267 67.039zM250.267 657.491l97.653-97.653c-52.472-77.172-44.583-183.99 23.671-252.243 68.25-68.259 175.073-76.145 252.243-23.671l90.306-90.306c-65.466-43.15-135.293-69.49-202.145-69.49-158.391 0-333.825 146.517-427.244 319.282-1.499 2.772-1.499 6.41 0 9.184 41.714 77.147 99.902 148.924 165.51 204.897zM408.838 498.918l154.081-154.081c-42.973-21.505-96.053-14.258-132.144 21.835-36.081 36.080-43.419 89.25-21.938 132.246z" />
<glyph unicode="&#xe92a;" glyph-name="circle-arrow-check" horiz-adv-x="890" d="M107.565 799.043c-19.649-0.030-35.565-15.965-35.565-35.617 0-0.012 0-0.024 0-0.037v0.002c0-0.010 0-0.023 0-0.035 0-19.653 15.917-35.588 35.562-35.617h337.655c193.853 0 350.261-156.32 350.261-350.174s-156.407-350.261-350.261-350.261c-193.853 0-350.261 156.412-350.261 350.261-0.030 19.63-15.935 35.536-35.562 35.565h-0.003c-0.010 0-0.023 0-0.035 0-19.653 0-35.588-15.917-35.617-35.562v-0.003c0-232.348 189.127-421.478 421.478-421.478s421.478 189.126 421.478 421.478c0 232.352-189.127 421.478-421.478 421.478zM228.174 919.565c-0.009 0-0.019 0-0.029 0-9.837 0-18.742-3.988-25.188-10.435l-120.522-120.609c-6.438-6.445-10.419-15.344-10.419-25.174s3.981-18.729 10.42-25.174v0l120.522-120.522c6.449-6.465 15.366-10.464 25.217-10.464s18.769 4 25.217 10.463l0.001 0.001c6.439 6.444 10.421 15.344 10.421 25.174s-3.982 18.73-10.421 25.174v0l-95.391 95.391 95.391 95.391c6.439 6.444 10.421 15.344 10.421 25.174s-3.982 18.73-10.421 25.174v0c-6.446 6.447-15.351 10.435-25.188 10.435-0.010 0-0.021 0-0.031 0h0.002zM573.826 477.478c-0.009 0-0.019 0-0.029 0-9.837 0-18.742-3.988-25.188-10.435l-135.565-135.565-71.217 71.217c-6.444 6.439-15.344 10.421-25.174 10.421s-18.73-3.982-25.174-10.421v0c-6.439-6.444-10.421-15.344-10.421-25.174s3.982-18.73 10.421-25.174l96.434-96.434c6.445-6.438 15.344-10.419 25.174-10.419s18.729 3.981 25.174 10.42v0l160.696 160.783c6.439 6.444 10.421 15.344 10.421 25.174s-3.982 18.73-10.421 25.174v0c-6.433 6.434-15.315 10.418-25.127 10.435h-0.003z" />
<glyph unicode="&#xe92b;" glyph-name="info" d="M511.762-64c-70.457 0-136.629 13.334-198.516 40.009-61.888 26.353-116.317 63.027-163.288 110.021-46.971 46.987-83.786 101.442-110.445 163.361-26.342 61.916-39.513 128.119-39.513 198.608s13.171 136.692 39.513 198.608c26.659 61.916 63.475 116.371 110.445 163.364 46.971 47.31 101.4 84.142 163.288 110.497s128.059 39.531 198.516 39.531c70.774 0 137.104-13.177 198.992-39.531 61.891-26.354 116.316-63.186 163.289-110.497 46.972-46.993 83.624-101.448 109.97-163.364 26.661-61.916 39.987-128.119 39.987-198.608s-13.327-136.692-39.987-198.608c-26.346-61.919-62.998-116.374-109.97-163.361-46.972-46.994-101.398-83.668-163.289-110.021-61.888-26.675-128.218-40.009-198.992-40.009zM497.957 358.459c17.456 0 32.054 3.811 43.797 11.431 12.060 7.621 19.518 17.146 22.374 28.577 0 1.27 0.159 2.382 0.476 3.334 0.317 1.27 0.635 2.064 0.952 2.382 3.174 10.16 9.68 19.21 19.518 27.148 10.156 8.256 21.582 16.353 34.276 24.291 26.659 16.511 46.177 33.022 58.555 49.533 12.377 16.828 18.566 38.578 18.566 65.25 0 28.259-8.093 53.026-24.279 74.299s-38.084 37.785-65.695 49.533c-27.294 12.066-58.079 18.098-92.355 18.098-43.162 0-79.978-7.779-110.446-23.338-30.15-15.558-50.779-36.038-61.887-61.44-2.222-4.762-3.967-9.843-5.237-15.241-1.27-5.081-1.904-10.319-1.904-15.717 0-14.923 5.236-27.942 15.71-39.055 10.791-10.795 24.438-16.193 40.941-16.193 11.108 0 21.105 1.905 29.991 5.715 8.887 4.127 16.503 10.319 22.851 18.575l3.809 5.715c5.078 6.986 10.315 12.542 15.71 16.67s10.949 7.144 16.662 9.049c5.712 1.905 11.901 2.858 18.566 2.858 12.061 0 22.375-3.81 30.944-11.431s12.853-16.511 12.853-26.672c0-12.701-5.236-23.179-15.71-31.435-10.156-8.256-24.914-19.051-44.273-32.387-17.456-12.066-31.579-24.449-42.369-37.15s-16.187-27.624-16.187-44.77c0-0.317 0-0.635 0-0.952s0-0.635 0-0.953c0-37.149 24.596-55.725 73.789-55.725zM497.957 189.857c21.263 0 38.878 5.712 52.842 17.145 13.964 11.747 20.947 27.784 20.947 48.105 0 20.004-6.982 35.879-20.947 47.628-13.964 12.066-31.579 18.099-52.842 18.099-21.582 0-39.672-6.034-54.271-18.099-14.282-11.748-21.423-27.624-21.423-47.628 0-20.321 7.141-36.359 21.423-48.105 14.599-11.432 32.689-17.145 54.271-17.145z" />
<glyph unicode="&#xe92c;" glyph-name="speed-test" d="M512 730.583c-55.88 0-110.538-16.622-157-47.667s-82.699-75.125-104.083-126.75c-21.384-51.625-26.984-108.445-16.083-163.25s37.821-105.154 77.333-144.667c7.721-7.719 18.386-12.494 30.167-12.494s22.446 4.774 30.167 12.494v0c7.719 7.721 12.494 18.386 12.494 30.167s-4.774 22.446-12.494 30.167v0c-27.584 27.585-46.389 62.657-54 100.917s-3.678 77.959 11.25 114c14.929 36.040 40.232 66.827 72.667 88.5s70.572 33.25 109.583 33.25c39.006 0 77.063-11.577 109.5-33.25s57.74-52.461 72.667-88.5c14.93-36.039 18.859-75.739 11.25-114-7.613-38.263-26.416-73.333-54-100.917-7.719-7.721-12.494-18.386-12.494-30.167s4.774-22.446 12.494-30.167v0c7.721-7.719 18.386-12.494 30.167-12.494s22.446 4.774 30.167 12.494v0c39.514 39.514 66.429 89.865 77.333 144.667 10.899 54.803 5.305 111.623-16.083 163.25-21.382 51.626-57.62 95.705-104.083 126.75s-101.040 47.667-156.917 47.667zM599.75 583.083c-11.781-0.002-22.447-4.778-30.167-12.5l-90.083-90.083c-7.719-7.721-12.494-18.386-12.494-30.167s4.774-22.446 12.494-30.167v0c7.721-7.719 18.386-12.494 30.167-12.494s22.446 4.774 30.167 12.494l90.083 90.083c7.719 7.721 12.494 18.386 12.494 30.167s-4.774 22.446-12.494 30.167v0c-7.72 7.722-18.385 12.498-30.166 12.5v0zM512 926.833c-263.938 0-478.833-214.896-478.833-478.833s214.896-478.833 478.833-478.833c263.934 0 478.833 214.895 478.833 478.833s-214.9 478.833-478.833 478.833zM512 841.5c217.816 0 393.5-175.681 393.5-393.5s-175.684-393.5-393.5-393.5c-217.821 0-393.5 175.68-393.5 393.5s175.679 393.5 393.5 393.5z" />
<glyph unicode="&#xe92d;" glyph-name="user-login" d="M128 567.5c-0.008 0-0.018 0-0.028 0-9.427 0-17.961-3.822-24.138-10v0c-6.195-6.18-10.028-14.726-10.028-24.167s3.833-17.987 10.028-24.166l61.168-61.168-61.167-61.167c-6.195-6.18-10.028-14.726-10.028-24.167s3.833-17.987 10.028-24.166l0.001-0.001c6.18-6.195 14.726-10.028 24.167-10.028s17.987 3.833 24.166 10.028l85.334 85.334c6.194 6.18 10.027 14.726 10.027 24.167s-3.832 17.986-10.026 24.166l-85.334 85.334c-6.177 6.178-14.712 10-24.139 10-0.010 0-0.020 0-0.030 0h0.002zM512 695.5c-77.357 0-140.833-63.476-140.833-140.833s63.476-140.833 140.833-140.833c77.357 0 140.833 63.476 140.833 140.833s-63.476 140.833-140.833 140.833zM512 627.167c40.463 0 72.5-32.037 72.5-72.5s-32.038-72.5-72.5-72.5c-40.463 0-72.5 32.038-72.5 72.5s32.037 72.5 72.5 72.5zM417.667 375.5c-27.383-0.011-54.186-8.080-77.083-23.083-22.902-15.007-40.894-36.319-51.833-61.417-1.801-4.021-2.85-8.715-2.85-13.653 0-13.895 8.302-25.85 20.216-31.177l0.217-0.086c4.021-1.801 8.715-2.85 13.653-2.85 13.895 0 25.85 8.302 31.177 20.216l0.087 0.217c5.635 12.927 14.958 23.94 26.75 31.667 11.797 7.73 25.57 11.828 39.667 11.833h188.667c14.097-0.006 27.866-4.102 39.667-11.833 11.792-7.726 21.117-18.74 26.75-31.667 5.413-12.131 17.369-20.433 31.263-20.433 4.939 0 9.632 1.049 13.871 2.936l-0.217-0.086c12.131 5.413 20.433 17.369 20.433 31.263 0 4.939-1.049 9.632-2.936 13.871l0.086-0.217c-10.938 25.098-28.929 46.41-51.833 61.417-22.896 15.001-49.7 23.072-77.083 23.083zM492.167 887c-47.125-2.183-93.937-11.981-138.5-29.25-89.125-34.538-164.526-97.143-214.833-178.417-3.221-5.114-5.132-11.333-5.132-18 0-12.184 6.384-22.878 15.99-28.917l0.142-0.083c5.114-3.221 11.333-5.132 18-5.132 12.184 0 22.878 6.384 28.917 15.99l0.083 0.142c42.497 68.656 106.211 121.574 181.5 150.75s158.003 33.008 235.667 10.917c77.668-22.092 146.005-68.899 194.667-133.333 48.665-64.434 75-142.922 75-223.667 0-80.743-26.336-159.235-75-223.667 0-0.013 0-0.028 0-0.043s0-0.030 0-0.045v0.002c-48.662-64.433-117-111.161-194.667-133.25-77.663-22.094-160.378-18.261-235.667 10.917-75.288 29.176-139.003 82.095-181.5 150.752-6.123 9.748-16.816 16.132-29 16.132-6.666 0-12.886-1.911-18.141-5.215l0.142 0.083c-9.748-6.123-16.132-16.816-16.132-29 0-6.666 1.911-12.886 5.215-18.141l-0.083 0.142c50.307-81.274 125.708-143.881 214.833-178.417 89.125-34.54 187.063-39.071 279-12.917 91.942 26.149 172.896 81.561 230.5 157.833 57.61 76.275 88.75 169.252 88.75 264.833 0 95.583-31.141 188.557-88.75 264.833-57.604 76.274-138.559 131.682-230.5 157.833-45.968 13.076-93.375 18.516-140.5 16.333z" />
<glyph unicode="&#xe92e;" glyph-name="document-mark" horiz-adv-x="962" d="M664.818 531.242c-25.469 0-50.439-7.111-72.061-20.545l-157.576-97.909c-19.568-12.158-35.732-29.079-46.939-49.182s-17.091-42.721-17.091-65.727v-215.424c0-35.966 14.38-70.468 39.909-95.848s60.15-39.606 96.182-39.606h315.152c36.032 0 70.652 14.225 96.182 39.606s39.909 59.883 39.909 95.848v215.424c0 23.006-5.884 45.624-17.091 65.727-11.208 20.104-27.374 37.024-46.939 49.182l-157.576 97.909c-21.621 13.436-46.59 20.545-72.061 20.545zM664.818 469.182c13.91 0 27.532-3.867 39.303-11.182l157.576-97.909c10.652-6.619 19.418-15.815 25.485-26.697 6.067-10.884 9.242-23.094 9.242-35.515v-215.424c0-19.433-7.733-38.056-21.606-51.848s-32.732-21.545-52.424-21.545h-315.152c-19.692 0-38.551 7.753-52.424 21.545s-21.606 32.416-21.606 51.848v215.424c0 12.421 3.175 24.632 9.242 35.515s14.833 20.048 25.485 26.667c0 0.005 0 0.010 0 0.016s0 0.011 0 0.016v-0.001l157.576 97.909c11.773 7.315 25.395 11.182 39.303 11.182zM551.636 295.182c-8.085-2.245-14.691-7.46-18.708-14.367l-0.080-0.148c-2.592-4.436-4.123-9.767-4.123-15.455 0-11.45 6.202-21.452 15.429-26.829l0.148-0.079 78.788-45.212c12.694-7.287 27.094-11.121 41.727-11.121s29.003 3.836 41.697 11.121l78.788 45.212c9.388 5.454 15.6 15.462 15.6 26.922 0 5.683-1.528 11.009-4.195 15.59l0.079-0.148c-5.454 9.388-15.462 15.6-26.922 15.6-5.683 0-11.009-1.528-15.59-4.195l0.148 0.079-78.788-45.242c-3.277-1.881-7.010-2.879-10.818-2.879s-7.544 0.999-10.818 2.879l-78.788 45.242c-4.433 2.588-9.759 4.115-15.442 4.115-2.894 0-5.695-0.396-8.352-1.137l0.218 0.052zM323.394 949c-17.138 0-31.030-13.893-31.030-31.030v-182.758c0-19.433-7.761-38.053-21.636-51.848-13.873-13.792-32.702-21.576-52.394-21.576h-183.848c-17.138 0-31.030-13.893-31.030-31.030v0c0-17.138 13.893-31.030 31.030-31.030h183.848c36.032 0 70.622 14.256 96.152 39.636 25.527 25.38 39.939 59.883 39.939 95.848v182.758c0 17.138-13.893 31.030-31.030 31.030v0zM309.879 949c-49.963 0-97.922-19.736-133.303-54.909l-117.818-117.091c-35.38-35.173-55.303-82.974-55.303-132.788v-509.545c0-49.816 19.924-97.583 55.303-132.758 35.38-35.173 83.34-54.909 133.303-54.909h52.545c17.138 0 31.030 13.893 31.030 31.030v0c0 17.138-13.893 31.030-31.030 31.030v0h-52.545c-33.623 0-65.821 13.263-89.545 36.848-23.725 23.588-37 55.474-37 88.758v509.545c0 33.282 13.276 65.172 37 88.758l117.788 117.121c23.726 23.586 55.952 36.848 89.576 36.848h407.455c33.625 0 65.819-13.262 89.545-36.848 23.724-23.586 37-55.474 37-88.758v-156.667c0-17.138 13.893-31.030 31.030-31.030v0c17.138 0 31.030 13.893 31.030 31.030v0 156.667c0 49.816-19.924 97.585-55.303 132.758-35.381 35.172-83.339 54.909-133.303 54.909z" />
<glyph unicode="&#xe92f;" glyph-name="folder-mark" d="M557.667 454.5l-64.583-64.667-26.75 26.75c-7.717 7.694-18.365 12.451-30.124 12.451-11.802 0-22.484-4.792-30.208-12.535l-0.001-0.001c-7.719-7.721-12.494-18.386-12.494-30.167s4.774-22.446 12.494-30.167v0l56.917-56.833c7.721-7.718 18.387-12.492 30.167-12.492s22.445 4.774 30.167 12.492l94.833 94.833c7.694 7.717 12.451 18.365 12.451 30.124 0 11.802-4.792 22.484-12.535 30.208l-0.001 0.001c-7.721 7.719-18.386 12.494-30.167 12.494s-22.446-4.774-30.167-12.494v0zM180.167 869.917c-36.446 0-71.479-14.479-97.25-40.25s-40.25-60.804-40.25-97.25v-568.833c0-36.445 14.476-71.478 40.25-97.25 25.772-25.775 60.805-40.25 97.25-40.25h663.667c36.443 0 71.477 14.471 97.25 40.25 25.779 25.773 40.25 60.807 40.25 97.25v426.667c0 36.445-14.475 71.395-40.25 97.167-25.772 25.775-60.806 40.25-97.25 40.25h-304.833c-0.771 0-1.472 0.216-2.167 0.583-0.686 0.363-1.316 0.862-1.75 1.5l-68.5 100.75c-8.263 12.144-19.357 22.134-32.333 29-12.979 6.867-27.485 10.416-42.167 10.417zM180.167 784.583h211.917c0.776 0 1.566-0.138 2.25-0.5 0-0.012 0-0.027 0-0.042s0-0.029 0-0.044v0.002c0.687-0.364 1.234-0.864 1.667-1.5l68.583-100.75c8.261-12.144 19.357-22.049 32.333-28.917 12.976-6.863 27.4-10.5 42.083-10.5h304.833c13.843 0 27.13-5.463 36.917-15.25 9.792-9.791 15.25-22.985 15.25-36.833v-426.667c0-13.844-5.462-27.131-15.25-36.917-9.786-9.788-23.073-15.25-36.917-15.25h-663.667c-13.848 0-27.126 5.458-36.917 15.25-9.788 9.787-15.25 23.074-15.25 36.917v568.833c0 13.847 5.459 27.125 15.25 36.917s23.070 15.25 36.917 15.25z" />
<glyph unicode="&#xe930;" glyph-name="chevron-right" horiz-adv-x="626" d="M113.778 908.778c-17.271-0.009-32.905-7.013-44.222-18.333v0c-11.308-11.322-18.302-26.955-18.302-44.222s6.993-32.901 18.302-44.223l353.999-353.999-354-354c-11.308-11.322-18.302-26.955-18.302-44.222s6.993-32.901 18.302-44.223l-0.001 0.001c11.322-11.308 26.955-18.302 44.222-18.302s32.901 6.993 44.223 18.302l398.221 398.221c1.409 1.415 2.753 2.9 4.024 4.447l0.087 0.109c8.841 10.701 14.209 24.556 14.222 39.664v0.003c-0.012 2.169-0.133 4.293-0.357 6.386l0.024-0.275c-1.51 14.986-8.102 28.2-18.001 38.112l-398.221 398.221c-11.318 11.32-26.951 18.324-44.22 18.333h-0.002z" />
<glyph unicode="&#xe931;" glyph-name="chevron-left" horiz-adv-x="626" d="M512 917.509c-17.271-0.009-32.905-7.013-44.222-18.333l-398.222-398.222c-11.308-11.322-18.302-26.955-18.302-44.222s6.993-32.901 18.302-44.223l398.221-398.221c11.322-11.308 26.955-18.302 44.222-18.302s32.901 6.993 44.223 18.302l-0.001-0.001c11.308 11.322 18.302 26.955 18.302 44.222s-6.993 32.901-18.302 44.223l-353.999 353.999 354 354c11.308 11.322 18.302 26.955 18.302 44.222s-6.993 32.901-18.302 44.223l0.001-0.001c-11.318 11.32-26.951 18.324-44.22 18.333h-0.002z" />
<glyph unicode="&#xe932;" glyph-name="calendar" d="M284.444 948.667c-0.013 0-0.029 0-0.044 0-25.135 0-45.511-20.376-45.511-45.511 0-0.016 0-0.031 0-0.047v0.002-30.333h-30.333c-108.38 0-197.222-88.843-197.222-197.222v-530.889c0-108.381 88.843-197.222 197.222-197.222h606.889c108.381 0 197.222 88.841 197.222 197.222v530.889c0 108.379-88.841 197.222-197.222 197.222h-30.333v30.333c0 0.013 0 0.029 0 0.044 0 25.135-20.376 45.511-45.511 45.511-0.016 0-0.031 0-0.047 0h0.002c-0.013 0-0.029 0-0.044 0-25.135 0-45.511-20.376-45.511-45.511 0-0.016 0-0.031 0-0.047v0.002-30.333h-364v30.333c0 0.013 0 0.029 0 0.044 0 25.135-20.376 45.511-45.511 45.511-0.016 0-0.031 0-0.047 0h0.002zM208.556 781.778h30.333v-30.333c0-0.013 0-0.029 0-0.044 0-25.135 20.376-45.511 45.511-45.511 0.016 0 0.031 0 0.047 0h-0.002c0.013 0 0.029 0 0.044 0 25.135 0 45.511 20.376 45.511 45.511 0 0.016 0 0.031 0 0.047v-0.002 30.333h364v-30.333c0-0.013 0-0.029 0-0.044 0-25.135 20.376-45.511 45.511-45.511 0.016 0 0.031 0 0.047 0h-0.002c0.013 0 0.029 0 0.044 0 25.135 0 45.511 20.376 45.511 45.511 0 0.016 0 0.031 0 0.047v-0.002 30.333h30.333c59.19 0 106.111-47.035 106.111-106.222v-80.889h-819.111v80.889c0 59.187 46.924 106.222 106.111 106.222zM102.444 503.556h819.111v-358.889c0-59.191-46.92-106.222-106.111-106.222h-606.889c-59.188 0-106.111 47.032-106.111 106.222v358.889z" />
<glyph unicode="&#xe933;" glyph-name="search" d="M464.889 959.667c-119.104 0-238.122-45.345-328.667-135.889-181.089-181.089-181.089-476.359 0-657.444 167.459-167.461 432.512-179.92 614.667-37.667l176-176c10.294-10.292 24.515-16.658 40.222-16.658s29.928 6.366 40.222 16.658v0c10.292 10.294 16.658 24.515 16.658 40.222s-6.366 29.928-16.658 40.222l-176 176c142.253 182.154 129.795 447.208-37.667 614.667-90.543 90.545-209.673 135.889-328.778 135.889zM464.889 846.556c89.748 0 179.531-34.418 248.333-103.222 137.013-137.011 137.599-357.049 1.778-494.778-0.81-0.602-1.461-1.112-2.101-1.636l0.101 0.080c-0.356-0.448-0.793-1.026-1.22-1.614l-0.114-0.164c-137.714-136.045-357.914-135.532-495 1.556-137.608 137.605-137.608 358.947 0 496.556 68.804 68.804 158.474 103.222 248.222 103.222z" />
<glyph unicode="&#xe934;" glyph-name="status-success" d="M512 1.734c-65.645 0-127.244 12.445-184.8 37.335-57.556 24.576-108.111 58.641-151.667 102.195-43.555 43.561-77.778 94.112-102.667 151.669-24.578 57.555-36.866 119.155-36.866 184.8s12.289 127.244 36.866 184.8c24.889 57.556 59.111 108.111 102.667 151.667 43.555 43.867 94.111 78.089 151.667 102.667s119.155 36.867 184.8 36.867c65.645 0 127.244-12.289 184.798-36.867 57.556-24.578 108.114-58.8 151.668-102.667 43.554-43.555 77.626-94.111 102.202-151.667 24.89-57.556 37.335-119.155 37.335-184.8s-12.445-127.245-37.335-184.8c-24.576-57.557-58.648-108.108-102.202-151.669-43.554-43.554-94.112-77.619-151.668-102.195-57.554-24.89-119.153-37.335-184.798-37.335zM512 81.067c54.755 0 106.089 10.267 154 30.802s90.067 48.995 126.467 85.395c36.4 36.407 64.867 78.561 85.402 126.47 20.535 47.911 30.795 99.244 30.795 154s-10.26 106.088-30.795 154c-20.535 48.222-49.002 90.378-85.402 126.467-36.4 36.4-78.554 64.866-126.467 85.4-47.911 20.533-99.245 30.8-154 30.8s-106.089-10.267-154-30.8c-47.911-20.533-90.067-49-126.467-85.4-36.4-36.089-64.866-78.245-85.4-126.467-20.533-47.912-30.8-99.245-30.8-154s10.267-106.089 30.8-154c20.534-47.909 49-90.064 85.4-126.47 36.4-36.4 78.556-64.86 126.467-85.395s99.245-30.802 154-30.802zM460.667 256.532c-7.778 0-14.933 1.713-21.467 5.134-6.222 3.42-12.289 8.868-18.2 16.334l-113.867 140c-7.155 9.644-10.733 19.289-10.733 28.933 0 10.267 3.422 18.977 10.267 26.133 7.156 7.466 15.711 11.2 25.666 11.2 6.534 0 12.445-1.4 17.734-4.2 5.6-2.489 11.2-7.467 16.8-14.933l91.933-119 193.667 310.8c8.711 13.999 19.6 21 32.664 21 9.646 0 18.357-3.111 26.132-9.333 7.782-6.223 11.667-14.467 11.667-24.734 0-5.289-1.242-10.578-3.727-15.867-2.178-4.978-4.669-9.645-7.468-14l-213.268-336c-9.333-14.313-21.933-21.468-37.8-21.468z" />
<glyph unicode="&#xe935;" glyph-name="status-waiting" d="M512 1.734c-65.645 0-127.244 12.445-184.8 37.335-57.556 24.576-108.111 58.641-151.667 102.195-43.555 43.561-77.778 94.112-102.667 151.669-24.578 57.555-36.866 119.155-36.866 184.8s12.289 127.244 36.866 184.8c24.889 57.556 59.111 108.111 102.667 151.667 43.555 43.867 94.111 78.089 151.667 102.667s119.155 36.867 184.8 36.867c65.645 0 127.244-12.289 184.798-36.867 57.556-24.578 108.114-58.8 151.668-102.667 43.554-43.555 77.626-94.111 102.202-151.667 24.89-57.556 37.335-119.155 37.335-184.8s-12.445-127.245-37.335-184.8c-24.576-57.557-58.648-108.108-102.202-151.669-43.554-43.554-94.112-77.619-151.668-102.195-57.554-24.89-119.153-37.335-184.798-37.335zM512 81.067c54.755 0 106.089 10.267 154 30.802s90.067 48.995 126.467 85.395c36.4 36.407 64.867 78.561 85.402 126.47 20.535 47.911 30.795 99.244 30.795 154s-10.26 106.088-30.795 154c-20.535 48.222-49.002 90.378-85.402 126.467-36.4 36.4-78.554 64.866-126.467 85.4-47.911 20.533-99.245 30.8-154 30.8s-106.089-10.267-154-30.8c-47.911-20.533-90.067-49-126.467-85.4-36.4-36.089-64.866-78.245-85.4-126.467-20.533-47.912-30.8-99.245-30.8-154s10.267-106.089 30.8-154c20.534-47.909 49-90.064 85.4-126.47 36.4-36.4 78.556-64.86 126.467-85.395s99.245-30.802 154-30.802zM294.067 410.533c-18.667 0-34.689 6.534-48.067 19.6-13.067 13.378-19.6 29.4-19.6 48.067s6.533 34.533 19.6 47.6c13.378 13.378 29.4 20.066 48.067 20.066 18.356 0 34.222-6.689 47.6-20.066 13.378-13.067 20.067-28.933 20.067-47.6s-6.689-34.689-20.067-48.067c-13.066-13.066-28.933-19.6-47.6-19.6zM511.533 410.533c-18.356 0-34.222 6.534-47.6 19.6-13.067 13.378-19.6 29.4-19.6 48.067s6.533 34.533 19.6 47.6c13.378 13.378 29.244 20.066 47.6 20.066 18.667 0 34.533-6.689 47.6-20.066 13.378-13.067 20.067-28.933 20.067-47.6s-6.689-34.689-20.067-48.067c-13.067-13.066-28.933-19.6-47.6-19.6zM729.463 410.533c-18.664 0-34.686 6.534-48.063 19.6-13.067 13.378-19.6 29.4-19.6 48.067s6.533 34.533 19.6 47.6c13.377 13.378 29.399 20.066 48.063 20.066 18.671 0 34.536-6.689 47.602-20.066 13.38-13.067 20.070-28.933 20.070-47.6s-6.69-34.689-20.070-48.067c-13.066-13.066-28.931-19.6-47.602-19.6z" />
<glyph unicode="&#xe936;" glyph-name="attach" horiz-adv-x="922" d="M659.2 949.6c-61.398 0-122.891-23.391-169.5-70l-370.2-370.2c-128.491-128.493-128.491-338.008 0-466.5s338.008-128.491 466.5 0l224.7 224.7c7.405 7.411 11.984 17.646 11.984 28.95s-4.579 21.539-11.984 28.95v0c-7.411 7.404-17.646 11.984-28.95 11.984s-21.539-4.579-28.95-11.984l-224.8-224.7c-97.199-97.198-253.402-97.198-350.6 0s-97.198 253.4 0 350.6l370.3 370.3c61.917 61.917 160.983 61.917 222.9 0s61.917-160.983 0-222.9l-370.2-370.3c-26.629-26.629-68.671-26.629-95.3 0s-26.629 68.571 0 95.2l280.9 280.9c7.404 7.411 11.984 17.646 11.984 28.95s-4.579 21.539-11.984 28.95v0c-7.416 7.434-17.671 12.034-29 12.034s-21.584-4.6-28.999-12.033l-280.801-280.801c-57.953-57.953-57.953-153.247 0-211.2s153.147-57.953 211.1 0l370.3 370.3c93.219 93.219 93.219 245.581 0 338.8-46.609 46.609-108.002 70-169.4 70z" />
<glyph unicode="&#xe937;" horiz-adv-x="1097" d="M529.442 852.812c8.387 14.926 29.873 14.926 38.26 0l131.547-234.11c3.201-5.697 8.776-9.672 15.206-10.84l268.989-48.891c17.284-3.142 24.057-24.314 11.798-36.9l-187.246-192.224c-4.703-4.825-6.927-11.542-6.034-18.218l35.16-262.968c2.289-17.137-15.228-30.069-30.932-22.835l-248.435 114.461c-5.827 2.684-12.537 2.684-18.364 0l-248.433-114.461c-15.707-7.234-33.223 5.698-30.931 22.835l35.156 262.968c0.892 6.676-1.331 13.393-6.031 18.218l-187.243 192.224c-12.26 12.586-5.493 33.758 11.794 36.9l268.989 48.891c6.43 1.168 12.005 5.143 15.206 10.84l131.547 234.11z" />
<glyph unicode="&#xe938;" horiz-adv-x="1097" d="M644.429 492.857c-0.016 0-0.035 0-0.054 0-6.060 0-11.547-2.457-15.518-6.429v0l-104.286-104.429-56.429 56.429c-3.976 4.004-9.484 6.483-15.571 6.483s-11.595-2.478-15.57-6.481l-0.001-0.001c-3.961-3.969-6.411-9.449-6.411-15.5s2.45-11.531 6.411-15.5v0l72-72c3.977-4.004 9.485-6.482 15.571-6.482s11.595 2.478 15.57 6.48l119.858 119.858c4.004 3.976 6.483 9.484 6.483 15.571s-2.478 11.595-6.481 15.57l-0.001 0.001c-3.971 3.972-9.457 6.429-15.518 6.429-0.019 0-0.038 0-0.057 0h0.003z" />
<glyph unicode="&#xe939;" glyph-name="activate" d="M544 874.682c0 8.487-3.37 16.627-9.374 22.628-6 6.001-14.141 9.372-22.626 9.372s-16.626-3.371-22.626-9.372c-6.004-6.001-9.374-14.141-9.374-22.628v-170.666c0-8.487 3.37-16.627 9.374-22.628 6-6.001 14.141-9.372 22.626-9.372s16.626 3.371 22.626 9.372c6.004 6.001 9.374 14.141 9.374 22.628v170.666zM375.125 772.374c3.872 1.636 7.384 4.019 10.334 7.012s5.283 6.538 6.864 10.433c1.581 3.894 2.379 8.062 2.349 12.265s-0.888 8.359-2.524 12.231c-1.636 3.872-4.019 7.383-7.012 10.334s-6.538 5.283-10.433 6.864c-3.894 1.581-8.063 2.379-12.266 2.349s-8.359-0.887-12.231-2.523c-75.375-31.821-139.694-85.161-184.91-153.349s-69.32-148.195-69.298-230.009c0-229.762 186.24-416 416-416 229.762 0 416 186.238 416 416 0.023 81.815-24.083 161.822-69.297 230.009-45.219 68.187-109.535 121.528-184.911 153.349-3.873 1.636-8.029 2.493-12.232 2.523s-8.369-0.768-12.265-2.349c-3.896-1.581-7.438-3.913-10.431-6.864s-5.376-6.462-7.014-10.334c-1.634-3.872-2.495-8.028-2.523-12.231s0.768-8.371 2.351-12.265c1.578-3.895 3.91-7.44 6.861-10.433s6.465-5.376 10.338-7.012c74.771-31.655 136.308-88.178 174.187-159.999s49.771-154.526 33.666-234.11c-16.105-79.583-59.22-151.156-122.042-202.598s-141.489-79.593-222.687-79.686c-81.276-0.056-160.066 28.020-222.996 79.458-62.929 51.433-106.12 123.062-122.24 202.724s-4.177 162.448 33.804 234.304c37.98 71.856 99.656 128.356 174.558 159.907z" />
<glyph unicode="&#xe93a;" glyph-name="money" d="M583.818 234l-94.818-94.818c-5.899-5.897-9.548-14.045-9.548-23.045s3.649-17.148 9.548-23.045l94.818-94.818c5.892-5.873 14.022-9.504 23-9.504s17.108 3.631 23.001 9.505l-0.001-0.001c5.9 5.897 9.55 14.045 9.55 23.045s-3.65 17.149-9.549 23.045l-71.818 71.818 71.818 71.727c5.9 5.897 9.55 14.045 9.55 23.045s-3.65 17.149-9.55 23.045v0c-5.892 5.873-14.022 9.504-23 9.504s-17.108-3.631-23.001-9.505l0.001 0.001zM394.182 897.727c-5.9-5.897-9.55-14.045-9.55-23.045s3.65-17.149 9.549-23.045l71.727-71.727-71.727-71.818c-5.9-5.897-9.55-14.045-9.55-23.045s3.65-17.149 9.549-23.045v0c5.892-5.873 14.022-9.504 23-9.504s17.108 3.631 23.001 9.505l94.817 94.817c5.899 5.897 9.548 14.045 9.548 23.045s-3.649 17.148-9.548 23.045l-94.818 94.818c-5.892 5.873-14.022 9.504-23 9.504s-17.108-3.631-23.001-9.505l0.001 0.001zM654.182 812.455c-17.979-0.021-32.546-14.6-32.546-32.582 0-0.019 0-0.038 0-0.058v0.003c0.021-17.966 14.579-32.525 32.543-32.545h142.275c29.092 0 56.977-11.521 77.545-32.091 20.571-20.572 32.091-48.457 32.091-77.545v-379.273c0-29.090-11.521-56.976-32.091-77.545-20.568-20.572-48.453-32.091-77.545-32.091h-284.455c-17.966-0.021-32.525-14.579-32.545-32.543v-0.002c0-0.016 0-0.035 0-0.055 0-17.982 14.567-32.561 32.543-32.582h284.457c46.348 0 90.863 18.494 123.636 51.273 32.771 32.771 51.182 77.194 51.182 123.545v379.273c0 46.35-18.411 90.864-51.182 123.636-32.772 32.774-77.287 51.182-123.636 51.182zM227.545 812.455c-46.348 0-90.772-18.408-123.545-51.182s-51.182-77.288-51.182-123.636v-379.273c0-46.349 18.408-90.773 51.182-123.545 32.774-32.778 77.198-51.273 123.545-51.273h142.273c17.979 0.021 32.546 14.6 32.546 32.582 0 0.019 0 0.038 0 0.058v-0.003c-0.021 17.966-14.579 32.525-32.543 32.545h-142.275c-29.091 0-56.885 11.519-77.455 32.091-20.57 20.569-32.182 48.454-32.182 77.545v379.273c0 29.091 11.611 56.975 32.182 77.545s48.364 32.091 77.455 32.091h284.455c0.016 0 0.035 0 0.055 0 17.982 0 32.561 14.567 32.582 32.543v0.002c0 0.016 0 0.035 0 0.055 0 17.994-14.587 32.582-32.582 32.582-0.019 0-0.038 0-0.058 0h0.003zM470.545 614.273c-17.965-0.023-32.523-14.58-32.545-32.543v-296.638c0-0.016 0-0.035 0-0.055 0-17.982 14.567-32.561 32.543-32.582h0.002c17.979 0.021 32.546 14.6 32.546 32.582 0 0.019 0 0.038 0 0.058v-0.003 264.091h79.727c22.986 0 38.818-16.16 38.818-34.273 0-18.111-15.833-34.273-38.818-34.273-0.016 0-0.035 0-0.055 0-17.994 0-32.582-14.587-32.582-32.582 0-0.019 0-0.038 0-0.058v0.003c0.021-17.979 14.6-32.546 32.582-32.546 0.019 0 0.038 0 0.057 0h-0.003c55.928 0 104 43.706 104 99.455s-48.072 99.364-104 99.364zM417.182 480.636c-17.966-0.021-32.525-14.579-32.545-32.543v-0.002c0-0.016 0-0.035 0-0.055 0-17.982 14.567-32.561 32.543-32.582h165.457c0.016 0 0.035 0 0.055 0 17.994 0 32.582 14.587 32.582 32.582 0 0.019 0 0.038 0 0.058v-0.003c-0.021 17.979-14.6 32.546-32.582 32.546-0.019 0-0.038 0-0.058 0h0.003zM417.182 381.091c-17.966-0.021-32.525-14.579-32.545-32.543v-0.002c0.021-17.966 14.579-32.525 32.543-32.545h148.547c0.016 0 0.035 0 0.055 0 17.982 0 32.561 14.567 32.582 32.543v0.002c-0.021 17.979-14.6 32.546-32.582 32.546-0.019 0-0.038 0-0.058 0h0.003z" />
<glyph unicode="&#xe93b;" glyph-name="play" d="M512 960c-285.091 0-512-226.909-512-512s226.909-512 512-512c285.091 0 512 226.909 512 512s-226.909 512-512 512zM512 29.091c-232.728 0-418.909 186.181-418.909 418.909s186.181 418.909 418.909 418.909c232.728 0 418.909-186.181 418.909-418.909s-186.181-418.909-418.909-418.909zM692.788 540.375l-221.516 122.898c-29.090 17.455-69.818 17.455-104.727 0-29.090-17.455-52.364-52.364-52.364-87.273v-250.182c0-34.909 17.455-69.818 52.364-87.273 17.455-11.636 34.909-11.636 52.364-11.636s34.909 0 52.364 11.636l221.090 128c29.090 17.455 52.364 52.364 52.364 87.273s-17.029 68.967-51.938 86.422zM645.818 430.41l-221.090-122.047h-11.636c0 0-5.819 0-5.819 11.636v250.182c0 5.819 0 11.636 5.819 11.636h11.636l221.090-128c5.819 0 5.819-11.636 5.819-11.636s0-11.636-5.819-11.636z" />
</font>
</defs>
</svg>
